<?xml version="1.0" standalone="no"?>
<!DOCTYPE svg PUBLIC "-//W3C//DTD SVG 1.1//EN" "http://www.w3.org/Graphics/SVG/1.1/DTD/svg11.dtd" >
<svg xmlns="http://www.w3.org/2000/svg">
<defs>
  <font id="flaticon_cretio" horiz-adv-x="300.00312100121715">
    <font-face font-family="flaticon_cretio"
      units-per-em="300" ascent="300"
      descent="0" />
    <missing-glyph horiz-adv-x="0" />
    <glyph glyph-name="001-down-arrow"
      unicode="&#xF101;"
      horiz-adv-x="300" d="M137.5731612216246 274.8788984290094L137.4730037397324 55.4206376245452L96.4084975812362 96.4119749161566C94.0551274654351 98.8308724777662 90.8234943436771 100.1962267654715 87.4484942905275 100.1962267654715C76.312120886805 100.1017385794712 70.8437444227361 86.596542154438 78.7814941540393 78.7852038177872L141.2571282087737 16.2363868901909C146.1415015140394 11.3404815325816 154.0730008515433 11.3404815325816 158.9573788812186 16.2363868901909L221.4328806524863 78.7852038177872C233.6686288766713 90.6004790362037 215.4558789835572 108.712919410615 203.7083795859588 96.4119749161566L162.4730009838268 55.1768581046642L162.5731584657191 274.8788984290094C162.6983553180844 281.9253548999872 156.974033968095 287.6815751911298 149.9266606287663 287.6107090516296C142.9844101257388 287.5634649586294 137.4377832667368 281.8200005725968 137.5731612216246 274.8788984290094z" />
    <glyph glyph-name="002-down-arrow-1"
      unicode="&#xF102;"
      horiz-adv-x="300" d="M150 93.75C147.60234375 93.75 145.20234375 94.66640625 143.371875 96.496875L49.621875 190.246875C45.95859375 193.91015625 45.95859375 199.8421875 49.621875 203.503125S59.2171875 207.16640625 62.878125 203.503125L150 116.38125L237.121875 203.503125C240.78515625 207.16640625 246.7171875 207.16640625 250.378125 203.503125S254.04140625 193.9078125 250.378125 190.246875L156.628125 96.496875C154.79765625 94.66640625 152.39765625 93.75 150 93.75z" />
    <glyph glyph-name="003-right-arrow"
      unicode="&#xF103;"
      horiz-adv-x="300" d="M298.0172223535133 154.8066537892889L298.0172223535133 154.8066537892889L229.8369755219147 222.987486548088C227.3877998238312 225.8473972137209 223.0835786089698 226.1807897908045 220.223667943337 223.7310281655205C217.3637572777042 221.2818524674371 217.0303647006205 216.9776312525756 219.4801263259044 214.1177205869428C219.7086379340988 213.851123710716 219.9570710671102 213.6021046505042 220.223667943337 213.3741789695103L276.7451353394179 156.7841580909711H6.8178489049997C3.0526807145968 156.7841580909711 0 153.7314773763743 0 149.9657232587709S3.0526807145968 143.1478743537711 6.8178489049997 143.1478743537711H276.7451353394179L220.223667943337 86.6264069576902C217.3637572777042 84.1772312596068 217.0303647006205 79.8730100447453 219.4801263259044 77.0130993791125S226.2335232388494 73.8197961363961 229.0934339044822 76.26955776168C229.3600307807089 76.4980693698744 229.6090498409208 76.7465025028857 229.8369755219147 77.0130993791125L298.0178082807138 145.1939321379117C300.6609258821622 147.852283846573 300.6609258821622 152.1471302262265 298.0172223535133 154.8066537892889z" />
    <glyph glyph-name="004-facebook-app-symbol"
      unicode="&#xF104;"
      horiz-adv-x="300" d="M173.2330361804575 0V136.8340649353161H219.1441223676832L226.0321389205809 190.1765513507242H173.2330361804575V224.2279504186568C173.2330361804575 239.6670082957864 177.5027555933711 250.1885405990757 199.6673950457332 250.1885405990757L227.8904724150601 250.2001430974804V297.9115502871619C223.0096880861679 298.5458201999498 206.255680389844 300 186.7557480710846 300C146.0367799199428 300 118.1598437530215 275.1455146674918 118.1598437530215 229.5109546922438V190.1765513507242H72.10952758494V136.8340649353161H118.1598437530215V0H173.2330361804575z" />
    <glyph glyph-name="005-twitter"
      unicode="&#xF105;"
      horiz-adv-x="300" d="M177.927053010103 172.9704738374226L287.2073680863035 300H261.3114312972431L166.4233469507571 189.7020475060545L90.6365126348492 300H3.2253724406174L117.8299371315345 133.2099611047237L3.2253724406174 0H29.1227769759534L129.3270383326402 116.4783874360919L209.3634873651508 0H296.7746275593826L177.9206927762421 172.9704738374227zM142.4570072653441 131.740502458475L130.8451772303628 148.3490300643362L38.4539739230412 280.5049047188043H78.2308764891509L152.7916534161795 173.8508769783997L164.4034834511607 157.2423493725385L261.3236625162064 18.608576530737H221.5467599500966L142.4570072653441 131.7341422246141z" />
    <glyph glyph-name="006-instagram"
      unicode="&#xF106;"
      horiz-adv-x="300" d="M218.7923143737856 300H81.2071231272691C36.4287647038787 300 0 263.5712352961213 0 218.7928768727309V81.2053969586306C0 36.429327202824 36.4287647038787 0.0005624989453 81.2071231272691 0.0005624989453H218.7946030413694C263.5706727971761 0.0005624989453 299.9994375010548 36.429327202824 299.9994375010548 81.2053969586306V218.7928768727308C299.9994375010548 263.5712352961213 263.5706727971761 300 218.7923143737856 300zM282.4121902037059 81.2053969586307C282.4121902037059 46.1270322618145 253.8729677381855 17.5878097962941 218.7923143737856 17.5878097962941H81.2071231272691C46.1264697628692 17.5878097962941 17.5872472973488 46.1270322618145 17.5872472973488 81.2053969586306V218.7928768727308C17.5872472973488 253.8735302371308 46.1264697628692 282.4127527026512 81.2071231272691 282.4127527026512H218.7946030413694C253.8729677381856 282.4127527026512 282.4121902037059 253.8735302371308 282.4121902037059 218.7928768727308zM282.4121902037059 81.2053969586307M149.9997187505274 232.0290887735836C104.7681754346711 232.0290887735836 67.9709112264165 195.2318245653289 67.9709112264165 150.0002812494726S104.7681754346711 67.9714737253618 149.9997187505274 67.9714737253618S232.0285262746383 104.7687379336164 232.0285262746383 150.0002812494727S195.2312620663836 232.0290887735836 149.9997187505273 232.0290887735836zM149.9997187505274 85.5587210227106C114.4681691612454 85.5587210227106 85.5581585237653 114.4664429926069 85.5581585237653 150.0002812494727C85.5581585237653 185.5318308387547 114.4681691612454 214.4418414762348 149.9997187505274 214.4418414762348C185.5335570073932 214.4418414762348 214.4412789772895 185.5318308387547 214.4412789772895 150.0002812494727C214.4412789772895 114.4664429926069 185.5335570073931 85.5587210227106 149.9997187505273 85.5587210227106zM149.9997187505274 85.5587210227106M233.9900397843005 261.1611142291609C220.6233656280645 261.1611142291609 209.7514985128153 250.2869584463279 209.7514985128153 236.9225729576757C209.7514985128153 223.5558988014398 220.6233656280645 212.6817430186068 233.9900397843005 212.6817430186068S258.2308697233693 223.5558988014398 258.2308697233693 236.9225729576757S247.3567139405364 261.1611142291609 233.9900397843005 261.1611142291609zM233.9900397843005 230.2712795694758C230.3233599405752 230.2712795694758 227.3387463961006 233.2558931139504 227.3387463961006 236.9225729576757C227.3387463961006 240.5915420549212 230.3233599405752 243.573866931812 233.9900397843005 243.573866931812C237.6590088815459 243.573866931812 240.6436224260205 240.5915420549212 240.6436224260205 236.9225729576757C240.6436224260205 233.2558931139504 237.6590088815459 230.2712795694758 233.9900397843005 230.2712795694758zM233.9900397843005 230.2712795694758" />
    <glyph glyph-name="007-arrow"
      unicode="&#xF107;"
      horiz-adv-x="300" d="M252.3750000000001 247.3125A9.375 9.375 0 0 1 247.3125000000001 252.375A9.375 9.375 0 0 1 243.7500000000001 253.125H56.25A9.375 9.375 0 0 1 56.25 234.375H221.15625L49.59375 62.90625A9.375 9.375 0 0 1 49.59375 49.59375A9.375 9.375 0 0 1 62.90625 49.59375L234.375 221.15625V56.25A9.375 9.375 0 0 1 253.125 56.25V243.75A9.375 9.375 0 0 1 252.3750000000001 247.3125z" />
    <glyph glyph-name="008-check-mark"
      unicode="&#xF108;"
      horiz-adv-x="300" d="M45.8209615384615 161.1028846153846A27.4205769230769 27.4205769230769 0 0 1 24.6265384615385 116.3786538461539L94.2784615384615 31.0551923076923A24.8861538461539 24.8861538461539 0 0 1 115.0857692307692 21.8192307692308C123.54 22.2732692307692 131.1726923076923 26.7957692307692 136.0390384615385 34.2317307692308L280.7238461538462 267.2463461538462C280.7475 267.2850000000001 280.7723076923077 267.3236538461539 280.7976923076924 267.3617307692308C282.1551923076924 269.4461538461539 281.7150000000001 273.5769230769232 278.9128846153847 276.1719230769231A7.6851923076923 7.6851923076923 0 0 1 267.7425000000001 275.3971153846154Q267.6646153846155 275.3013461538463 267.5821153846154 275.2084615384616L121.665576923077 110.3446153846154A6.3236538461538 6.3236538461538 0 0 0 112.6742307692308 109.8582692307693L64.2473076923077 153.9271153846154A27.2994230769231 27.2994230769231 0 0 1 45.8209615384616 161.1028846153846z" />
    <glyph glyph-name="009-phone-call"
      unicode="&#xF109;"
      horiz-adv-x="300" d="M291.8347480725801 79.830231290398L249.9688497780547 121.6961295849233C235.0167432442956 136.6482361186824 209.5981621369052 130.6668094385173 203.6173195234016 111.229655011292C199.1316875632739 97.7721750642473 184.1795810295149 90.2961217973678 170.7226851491317 93.2871271707811C140.8184720816136 100.7631804376607 100.4477844404642 139.6386574254342 92.9717311735846 171.0380811463282C88.4860992134569 184.4955610933728 97.4573631337123 199.4476676271319 110.9142590140955 203.9327155205981C130.3519975079823 209.9135581341017 136.3328401214859 235.3321392414921 121.3807335877268 250.2842457752512L79.5148352932015 292.1501440697765C67.5531500661942 302.6166186434079 49.6106222256834 302.6166186434079 39.144147652052 292.1501440697765L10.7351452379098 263.7411416556344C-17.6738571762324 233.8369285881162 13.7255665446616 154.5907639591933 84.0004672533292 84.3158632505257C154.2753679619967 14.0409625418581 233.5215325909197 -18.8542558990732 263.4257456584378 11.0505412351063L291.83474807258 39.4595436492485C302.3018067128729 51.4212288762557 302.3018067128729 69.3637567167666 291.8347480725801 79.830231290398z" />
    <glyph glyph-name="010-envelope"
      unicode="&#xF10A;"
      horiz-adv-x="300" d="M28.794080050662 195.1994230160312C32.5890396500569 192.521490307373 44.028450469679 184.5680242989997 63.1128988753504 171.3431295516647C82.1979336468436 158.1182348043297 96.8183790503219 147.9354059410585 106.9748214516072 140.7940565960291C108.0906756107 140.0112582237807 110.461352628678 138.3096246086008 114.088025237185 135.686810287202C117.7152842115139 133.0622368683374 120.729204536126 130.9413516904927 123.1274407477337 129.3235683878458C125.5274360568071 127.7063714510209 128.4287741436127 125.8921555980345 131.8343868372601 123.8838526579963C135.2388267992635 121.8773088154238 138.4480069425714 120.3680031898301 141.4613409013616 119.3688358292972C144.4752612259737 118.3614593472576 147.2651898066166 117.862462032813 149.8317130091121 117.862462032813H150H150.1688733567098C152.7353965592054 117.862462032813 155.5264978714921 118.3620457130795 158.5404181961042 119.3688358292972C161.5525794232506 120.3680031898301 164.764691395668 121.8790679128895 168.1661995285619 123.8838526579963C171.5694667589215 125.8945010613221 174.4708048457272 127.7069578168428 176.8708001548006 129.3235683878458C179.270795463874 130.9413516904927 182.2823703251985 133.0622368683374 185.9108020311712 135.686810287202C189.5368882738563 138.3119700718884 191.9104971209438 140.0112582237807 193.0263512800366 140.7940565960291C203.2924440900189 147.9354059410585 229.4109368953102 166.0722871785249 271.373620574404 195.2029412109627C279.5205873040072 200.8924487809455 286.3271217647266 207.7576198238557 291.7949830540278 215.7937634131182C297.2669489040823 223.8263888074492 300 232.253052034103 300 241.0690621665044C300 248.4361623529688 297.3478673875057 254.7425267675998 292.0459476258048 259.9875690445756C286.7446142299258 265.2337840531951 280.4658090089245 267.8554256429501 273.2136365235543 267.8554256429501H26.78460437898C18.191413258904 267.8554256429501 11.5783795194146 264.9540875561445 6.9466758921556 259.1514113825333C2.3155586307185 253.3475624772784 0 246.0930445286205 0 237.3884439023818C0 230.3573313318714 3.0702114435154 222.7380938419862 9.2077025014366 214.5354223593016C15.3446071935359 206.332164510795 21.875549717958 199.8862450305497 28.794080050662 195.1994230160312zM283.2569103212112 177.2882926199998C246.6536102543655 152.5137502785238 218.8598702958802 133.2598421503207 199.8891768596592 119.5306727961441C193.5276940577688 114.8450235132695 188.3670884591479 111.1872735162013 184.4038418688651 108.5662182922682C180.4405952785824 105.9434039708693 175.1697529054426 103.2648848963891 168.5836919937611 100.5318338004714C161.9999765453671 97.7946781438003 155.8642445849116 96.4302048762182 150.1712188199974 96.4302048762182H150.0005863658219H149.832299374934C144.1404463416636 96.4302048762182 138.0011961862767 97.7946781438003 131.4174807378827 100.5318338004714C124.8337652894888 103.2648848963891 119.5594047214176 105.9434039708693 115.5973308627787 108.5662182922682C111.6364297357836 111.1872735162013 106.474065039697 114.8450235132695 100.1131686036284 119.5306727961441C85.0453260780335 130.5789776125529 57.311395433383 149.8340584723998 16.9102039380328 177.2882926199998C10.5469620386767 181.5265447807578 4.9108137584876 186.3845856152736 0 191.8524469045748V58.9321105651394C0 51.5614921837436 2.621641589755 45.258645964044 7.8678565983746 40.0130173212464C13.1128988753504 34.765629580983 19.4198496558033 32.1428152595842 26.7863634764457 32.1428152595842H273.215981986842C280.5807367100187 32.1428152595842 286.8871011246497 34.765629580983 292.1327297674474 40.0130173212464C297.3801175077108 45.2604050615098 300.000586365822 51.5609058179217 300.000586365822 58.9321105651394V191.8524469045748C295.2005957476751 186.4977542189021 289.6219113180331 181.6397133843863 283.2569103212112 177.2882926199998z" />
    <glyph glyph-name="011-right-arrow-1"
      unicode="&#xF10B;"
      horiz-adv-x="300" d="M37.5 150C37.5 155.1778125 41.697375 159.375 46.875 159.375H253.125C258.3028125 159.375 262.5 155.1778125 262.5 150S258.3028125 140.625 253.125 140.625H46.875C41.697375 140.625 37.5 144.8221875 37.5 150zM162.1209375 241.00415625C165.781875 244.66528125 171.718125 244.66528125 175.3790625 241.00415625L259.7540625000001 156.6290625C263.415 152.968125 263.415 147.031875 259.7540625000001 143.3709375L175.3790625 58.9959375C171.718125 55.335 165.781875 55.335 162.1209375 58.9959375S158.46 68.593125 162.1209375 72.2540625L239.866875 150L162.1209375 227.74584375C158.46 231.4070625 158.46 237.3429375 162.1209375 241.00415625z" />
    <glyph glyph-name="012-location"
      unicode="&#xF10C;"
      horiz-adv-x="300" d="M150 284.375C103.4625 284.375 65.625 246.2 65.625 199.1125C65.625 183.1625 72.65 163.375 82.875 143.6375C105.3875 100.175 142.8875 56.4 142.8875 56.4C144.6625 54.325 147.2625 53.125 150 53.125S155.3375 54.325 157.1125 56.4C157.1125 56.4 194.6125 100.175 217.125 143.6375C227.35 163.375 234.375 183.1625 234.375 199.1125C234.375 246.2 196.5375 284.375 150 284.375zM150 234.375C131.025 234.375 115.625 218.975 115.625 200S131.025 165.625 150 165.625S184.375 181.025 184.375 200S168.975 234.375 150 234.375zM209.8 82.7875C219.9625 79.7375 228.3375 75.9625 234.125 71.5375C237.875 68.6875000000001 240.625 65.9 240.625 62.5000000000001C240.625 60.5 239.4875 58.6875000000001 237.8875 56.875C235.2375 53.8875 231.3 51.2 226.425 48.7C209.2 39.8875 181.35 34.3750000000001 150 34.3750000000001S90.8 39.8875 73.575 48.7C68.7 51.2 64.7625 53.8875 62.1125 56.875C60.5125 58.6875 59.375 60.5 59.375 62.5000000000001C59.375 65.9 62.125 68.6875000000001 65.875 71.5375C71.6625 75.9625 80.0375 79.7375 90.2 82.7875C95.15 84.275 97.9625 89.5125 96.475 94.4625C94.9875 99.425 89.75 102.2375 84.8 100.75C69.325 96.0875 57.3 89.7000000000001 50.075 82.6375000000001C43.725 76.4500000000001 40.625 69.525 40.625 62.5000000000001C40.625 53.7250000000001 45.5875 44.9750000000001 55.675 37.6750000000001C73.375 24.8750000000001 108.925 15.6250000000001 150 15.6250000000001S226.625 24.8750000000001 244.325 37.6750000000001C254.4125 44.9750000000001 259.375 53.7250000000001 259.375 62.5000000000001C259.375 69.525 256.2750000000001 76.4500000000001 249.925 82.6375000000001C242.7 89.7000000000001 230.675 96.0875000000001 215.2 100.75C210.25 102.2375 205.0125 99.425 203.525 94.4625C202.0375 89.5125000000001 204.85 84.275 209.8 82.7875z" />
    <glyph glyph-name="013-location-1"
      unicode="&#xF10D;"
      horiz-adv-x="300" d="M200.08359375 101.7861328125C232.0072265625 151.8796875 227.994140625 145.630078125 228.9140625 146.9361328125C240.53671875 163.3294921875 246.6796875 182.623828125 246.6796875 202.734375C246.6796875 256.06640625 203.4017578125 300 150 300C96.772265625 300 53.3203125 256.153125 53.3203125 202.734375C53.3203125 182.63671875 59.5921875 162.8373046875 71.595703125 146.223046875L99.915234375 101.785546875C69.6369140625 97.1326171875 18.1640625 83.26640625 18.1640625 52.734375C18.1640625 41.6044921875 25.428515625 25.7431640625 60.036328125 13.3833984375C84.2015625 4.753125 116.1509765625 0 150 0C213.2958984375 0 281.8359375 17.8546875 281.8359375 52.734375C281.8359375 83.2716796875 230.4234375 97.1232421875 200.08359375 101.7861328125zM86.2787109375 155.8916015625C86.18203125 156.0427734375 86.08125 156.1904296875 85.97578125 156.3357421875C75.9873046875 170.0771484375 70.8984375 186.3626953125 70.8984375 202.734375C70.8984375 246.690234375 106.292578125 282.421875 150 282.421875C193.6166015625 282.421875 229.1015625 246.6744140625 229.1015625 202.734375C229.1015625 186.336328125 224.1087890625 170.6033203125 214.660546875 157.2240234375C213.8138671875 156.1072265625 218.23125 162.9697265625 150 55.9048828125L86.2787109375 155.8916015625zM150 17.578125C80.862890625 17.578125 35.7421875 37.9001953125 35.7421875 52.734375C35.7421875 62.7046875 58.9265625 79.0986328125 110.3015625 85.4888671875L142.587890625 34.826953125C144.2015625 32.29453125 146.996484375 30.76171875 149.9994140625 30.76171875S155.7978515625 32.2951171875 157.4109375 34.826953125L189.6966796875 85.4888671875C241.0728515625 79.0986328125 264.2578125 62.7046875 264.2578125 52.734375C264.2578125 38.026171875 219.5431640625 17.578125 150 17.578125zM150 246.6796875C125.7685546875 246.6796875 106.0546875 226.9658203125 106.0546875 202.734375S125.7685546875 158.7890625 150 158.7890625C174.2314453125 158.7890625 193.9453125 178.5029296875 193.9453125 202.734375S174.2314453125 246.6796875 150 246.6796875zM150 176.3671875C135.4611328125 176.3671875 123.6328125 188.1955078125 123.6328125 202.734375S135.4611328125 229.1015625 150 229.1015625S176.3671875 217.2732421875 176.3671875 202.734375S164.5388671875 176.3671875 150 176.3671875z" />
    <glyph glyph-name="014-phone"
      unicode="&#xF10E;"
      horiz-adv-x="300" d="M15.3210567 171.9671859C10.2962922 185.5636137 6.7493982 199.4556084 7.6361223 214.2343254C8.2272711 223.3971405 11.7741651 231.0820713 18.572376 237.5847072C25.6661652 244.3829154 32.7599514 251.7722796 39.8537346 258.5704935C49.016544 267.7332999 60.8395209 267.7332999 70.0023246 258.5704935C75.6182379 252.9545802 81.5297238 247.0430886 87.1456371 241.427181C92.7615504 235.8112677 98.377464 230.4909207 103.6977993 224.8750074C113.451759 215.1210477 113.451759 203.5936545 103.6977993 193.8396948C96.8995854 186.7459029 89.8057992 179.947689 82.7120187 173.1494865C80.9385678 171.3760413 80.6429955 169.8981513 81.5297181 167.5335501C86.2589088 156.3017232 92.761545 146.5477752 100.4464872 137.0893935C115.5207822 118.4681967 132.959667 101.9160459 153.354309 88.9107513C157.7879217 86.2505949 162.5171127 84.181572 167.2463148 81.8169708C169.6109046 80.6346588 171.0887715 80.9302368 173.1577947 82.9992828C179.95602 90.0930633 187.0498122 97.1868438 194.1435927 104.2806243C203.3063964 113.443428 215.1293562 113.443428 224.2921599 104.2806243C235.5240096 93.0487746 247.0513914 81.8169708 258.2832183 70.2895659C267.7416 60.8311842 267.7416 49.0082244 258.2832183 39.5498199C251.7805938 33.0471954 244.9823685 26.840103 239.0709 20.0419005C230.2036515000001 10.2879408 219.2674026 7.0366287 206.5577088 7.6277847C188.2321014 8.5145187 171.0887718 14.721588 154.8321876 22.7020797C118.476528 40.4365539 87.1456431 64.9692306 61.1350935 96.0045318C41.6271801 118.7637864 25.6661625 143.8876077 15.3210567 171.9671859zM292.4324799000001 165.7363014C285.6857070000001 232.3201503 232.854126 285.3336153 166.3533555 292.3611525C158.3251077 293.2095453 151.2852975 287.0421096 151.2852975 278.9691648V278.7110289C151.2852975 271.7957949 156.5278818 266.0494131 163.4050485 265.3248417C217.000122 259.67811 259.8983232000001 217.0165902 265.6158828 163.2398301C266.3529051000001 156.3078003 272.1795042000001 151.0464135 279.1501923000001 151.1230089H279.1502382000001C286.9826889000001 151.2090684 293.2221450000001 157.9432755 292.4324799000001 165.7363014zM151.2852858 227.944044V227.7553023C151.2852858 221.3105907 155.7996366 215.582691 162.1518516 214.4946783C175.2057036 212.2588059 187.2820359 206.0215815 196.8037491 196.4998626S212.5626756 174.9018288 214.7985534000001 161.8479537C215.8865661000001 155.495739 221.6144715000001 150.9813879 228.0591888000001 150.9813879H228.1777266000001C236.4905775000001 150.9813879 242.9455947000001 158.4567945 241.4920578000001 166.6415976C234.7431108 204.6447429 204.7068558 234.6892662 166.8916512000001 241.2667635C158.7233964000001 242.6875305 151.2852858000001 236.2349454 151.2852858000001 227.944044z" />
    <glyph glyph-name="015-call"
      unicode="&#xF10F;"
      horiz-adv-x="300" d="M292.1279263234364 68.5661893937619L231.4068614814988 109.060178567244C223.7011693576735 114.1576640967357 213.3720385255313 112.4803740069834 207.6752278958592 105.2058678789867L189.9878143088136 82.4643217022474C187.7147142221077 79.4671103508073 183.5827103789282 78.5977081526961 180.2943313101962 80.4243901295902L176.9297916715488 82.2791929322991C165.7763691327069 88.3585639631617 151.8987415930448 95.9271670611394 123.9378529749491 123.8980151383779S88.3931291448926 165.7570360649591 82.31375811403 176.8899538349776L80.4689147704638 180.254493473625C78.6170412204439 183.5422866918192 79.4700396034964 187.6918660511331 82.468422656012 189.9831275045111L105.1947367187683 207.6652684367164C112.4663135940759 213.3626649169264 114.1459470859795 223.6888664963794 109.0543200618658 231.3969020223561L68.5603308883838 292.1179668642936C63.342160148103 299.9671923698826 52.8730110374241 302.3234832329576 44.7947179715511 297.467368125044L19.4033698122935 282.2147493731399C11.4252571883861 277.5244299674268 5.5720244651185 269.928291894172 3.0710285192042 261.0180910646076C-6.0723408244089 227.703114381459 0.8061303400277 170.2065708996321 85.5037142924097 85.4990274881073C152.8788695428022 18.1291448925551 203.0364633374733 0.0117170107563 237.5114240854873 0.0117170107563C245.4455979190589 -0.0222623204367 253.3487216741265 1.0100063271859 261.0081316054648 3.080987978347C269.9200899866426 5.5790546715722 277.5173997609729 11.4328732453777 282.2047899139971 19.4133292714363L297.4726407798842 44.7894453167108C302.3357860942516 52.8694959341973 299.9806669322523 63.3450894007921 292.1279263234364 68.5661893937619zM288.8582944719143 49.9191526257821L273.6255946382959 24.5278044665245C270.2598832985729 18.7677219787688 264.7956553324116 14.5326084409346 258.3776626906944 12.7094415672674C227.6222670072411 4.2655777658004 173.8903990813863 11.2594614861857 92.5772736859373 92.5725868816348S4.2708504206407 227.6128933986362 12.7147142221077 258.3729758863919C14.5402244979261 264.7985845851007 18.7806106906006 270.2698427577157 24.5477233848101 273.640826752279L49.9390715440677 288.8735265858974C53.4442153117897 290.9825885220163 57.9880720830502 289.9602793335365 60.2523844116889 286.5541443067045L82.2493145548707 253.5291636397722L100.7118084034401 225.8383521196073C102.922808333138 222.4949031003211 102.1963536662527 218.0137323366063 99.0421343706793 215.5396855154313L76.3105476530827 197.857544583226C69.3928245026129 192.5679000773323 67.4173364891149 182.9968598411174 71.6764698989993 175.4007217678626L73.4814754059944 172.1211304571978C79.8707613713589 160.4029479999063 87.8143088135355 145.8252290675603 116.8150821362454 116.8291425491529C145.8158554589553 87.8336418812833 160.3888875869988 79.8895085885689 172.10179738945 73.5008084737422L175.3860755044173 71.6911161624447C182.9816277271342 67.432568603098 192.553253813887 69.4074707660582 197.8428983197806 76.3251939165281L215.525039251986 99.0567806341247C217.9996719236988 102.2092423780846 222.4790851358002 102.9351111944321 225.823705856162 100.7264546668855L286.5394980432592 60.2324654934034C289.9479764722424 57.9699107163781 290.9702856607222 53.4237105429663 288.8582944719143 49.9191526257821zM169.9909779017177 249.9742225763364C216.9064748201439 249.9220818784712 254.9258313219132 211.9021395261641 254.9785578703161 164.9866426077379C254.9785578703161 162.2255290230357 257.2165069247534 159.9875799685984 259.9776205094556 159.9875799685984S264.9766831485952 162.2255290230357 264.9766831485952 164.9866426077379C264.9186839453519 217.4220232934174 222.4263585873972 259.9149345019099 169.9909779017178 259.9723478546154C167.2298643170155 259.9723478546154 164.9919152625782 257.7343988001781 164.9919152625782 254.9732852154759S167.2298643170154 249.9742225763364 169.9909779017177 249.9742225763364zM169.9909779017177 219.9786750404237C200.3474093689218 219.9429381576172 224.947273451597 195.343074074942 224.9830103344035 164.9866426077379C224.9830103344035 162.2255290230357 227.2215452393786 159.9875799685984 229.982072973543 159.9875799685984C232.7431865582453 159.9875799685984 234.9811356126825 162.2255290230357 234.9811356126825 164.9866426077379C234.939540224498 200.8629578421953 205.8667072856373 229.935790781056 169.9909779017178 229.9768003187027C167.2298643170155 229.9768003187027 164.9919152625782 227.7388512642655 164.9919152625782 224.9777376795632S167.2298643170154 219.9786750404237 169.9909779017177 219.9786750404237zM169.9909779017177 189.9831275045111C183.7889297682375 189.9667236894524 194.9704731328943 178.7851803247955 194.9874627984908 164.9866426077379C194.9874627984908 162.2255290230357 197.2259977034659 159.9875799685984 199.9865254376303 159.9875799685984S204.9855880767698 162.2255290230357 204.9855880767698 164.9866426077379C204.963325756333 184.3044782415111 189.3088135354908 199.9595763128911 169.9909779017177 199.9812527827901C167.2298643170154 199.9812527827901 164.9919152625782 197.7433037283528 164.9919152625782 194.9821901436506S167.2298643170154 189.9831275045111 169.9909779017177 189.9831275045111z" />
    <glyph glyph-name="016-email"
      unicode="&#xF110;"
      horiz-adv-x="300" d="M261 228H75C61.8 228 51 217.2 51 204V195C51 191.7 53.7 189 57 189S63 191.7 63 195V204C63 205.2 63.3 206.4 63.6 207.6L130.8 150L63.6 92.4C63.3 93.6 63 94.8 63 96V105C63 108.3 60.3 111 57 111S51 108.3 51 105V96C51 82.8 61.8 72 75 72H261C274.2 72 285 82.8 285 96V204C285 217.2 274.2 228 261 228zM72.6 215.7C73.2 216 74.1 216 75 216H261C261.9 216 262.8 216 263.4 215.7L171.9 137.4C169.5 135.6 166.5 135.6 164.1 137.4zM261 84H75C74.1 84 73.2 84 72.6 84.3L140.1 142.2L156.3 128.1C159.6 125.1 163.8 123.6 168 123.6S176.4 125.1 179.7 128.1L195.9 142.2L263.4000000000001 84.3C262.8 84 261.9000000000001 84 261.0000000000001 84zM273 96C273 94.8 272.7 93.6 272.4000000000001 92.4L205.2 150L272.4000000000001 207.6C272.7 206.4 273 205.2 273 204zM33 165C33 168.3 35.7 171 39 171H75C78.3 171 81 168.3 81 165S78.3 159 75 159H39C35.7 159 33 161.7 33 165zM75 129H21C17.7 129 15 131.7 15 135S17.7 141 21 141H75C78.3 141 81 138.3 81 135S78.3 129 75 129z" />
    <glyph glyph-name="017-chevron"
      unicode="&#xF111;"
      horiz-adv-x="300" d="M150 0C109.934234765625 0 72.2648619140625 15.602874609375 43.9338685546875 43.9338685546875C15.602874609375 72.2648619140625 0 109.934234765625 0 150S15.602874609375 227.7351380859375 43.9338685546875 256.0661314453125C72.2648619140625 284.397125390625 109.934234765625 300 150 300S227.7351380859375 284.397125390625 256.0661314453125 256.0661314453125C284.3971253906251 227.7351380859375 300 190.065765234375 300 150S284.397125390625 72.2648619140625 256.0661314453125 43.9338685546875C227.7351380859375 15.602874609375 190.065765234375 0 150 0zM150 276.5625C80.213928515625 276.5625 23.4375 219.786071484375 23.4375 150S80.213928515625 23.4375 150 23.4375S276.5625 80.213928515625 276.5625 150S219.786071484375 276.5625 150 276.5625zM231.02645859375 169.921875L214.453125 186.49520859375L150 122.04208359375L85.546875 186.49520859375L68.97354140625 169.921875L150 88.89541640625zM231.02645859375 169.921875" />
    <glyph glyph-name="018-down-chevron"
      unicode="&#xF112;"
      horiz-adv-x="300" d="M256.0663917525773 256.0663917525773C227.7346391752578 284.3969072164949 190.0663917525773 300 150 300S72.2653608247423 284.3969072164949 43.9336082474227 256.0663917525773C15.6030927835052 227.7346391752578 0 190.0663917525773 0 150S15.6030927835052 72.2653608247423 43.9336082474227 43.9336082474227C72.2653608247423 15.6030927835051 109.9336082474227 0 150 0S227.7346391752578 15.6030927835051 256.0663917525773 43.9336082474227C284.3969072164949 72.2653608247423 300 109.9336082474227 300 150S284.3969072164949 227.7346391752578 256.0663917525773 256.0663917525773zM150 18.5567010309278C77.5218556701031 18.5567010309278 18.5567010309278 77.5218556701031 18.5567010309278 150S77.5218556701031 281.4432989690722 150 281.4432989690722S281.4432989690722 222.4781443298969 281.4432989690722 150S222.4781443298969 18.5567010309278 150 18.5567010309278zM150 114.5622680412371L83.8694845360825 180.4775257731959L70.7696907216495 167.3344329896907L150 88.3620618556701L229.2303092783505 167.3344329896907L216.1305154639175 180.4775257731959z" />
    <glyph glyph-name="019-check-mark-1"
      unicode="&#xF113;"
      horiz-adv-x="300" d="M138.4540384615385 34.1301923076923A5.7692307692308 5.7692307692308 0 0 0 134.2176923076923 35.9838461538461L19.9944230769231 159.5405769230769A5.7692307692308 5.7692307692308 0 0 0 24.2307692307692 169.2259615384615H79.2115384615385A5.7726923076923 5.7726923076923 0 0 0 83.5661538461538 167.241923076923L121.74 123.3242307692307C125.8655769230769 132.1430769230769 133.8519230769231 146.826923076923 147.8665384615385 164.7196153846154C168.585 191.1715384615384 207.1223076923077 230.0740384615384 273.0553846153846 265.1925A5.7692307692308 5.7692307692308 0 0 0 279.315 255.5509615384615C279.0634615384615 255.3542307692307 253.6419230769231 235.335 224.385 198.6663461538461C197.4588461538461 164.9221153846153 161.6653846153846 109.7451923076922 144.0525 38.5124999999999A5.7692307692308 5.7692307692308 0 0 0 138.4523076923077 34.1278846153845z" />
    <glyph glyph-name="020-checked"
      unicode="&#xF114;"
      horiz-adv-x="300" d="M130.0501508678361 19.94915707787C58.3145709724747 19.94915707787 0 78.2644201046386 0 150S58.3145709724747 280.0508429221301 130.0501508678361 280.0508429221301C162.9455676229319 280.0508429221301 193.8146494052947 268.1032175910975 217.8649202292084 246.0571360025099C209.865464645253 241.3269449032508 202.1455989960599 236.0874018436327 194.7205484760964 230.4160169045796C176.4973748073782 245.1173262713038 153.8388251686305 253.2115932935326 130.0501508678361 253.2115932935326C73.1985826728059 253.2115932935326 26.8392496285975 206.8515681950302 26.8392496285975 150S73.1985826728059 46.7884067064675 130.0501508678361 46.7884067064675C209.1540328310557 46.7884067064675 256.1182213281906 131.3442923975529 222.0947560739298 197.0873741614609C227.2512526182721 201.8826183643528 232.5586169986989 206.5304550026298 238.0064684008009 211.0232714790585C239.6148025799784 212.3499395605917 241.2369778450352 213.6641506648335 242.8709180330894 214.96521273749C254.2524429516577 195.3074105173798 260.1030699528481 173.0191099259041 260.1030699528481 150.000692054294C260.1016858442601 78.2644201046386 201.7864228174915 19.94915707787 130.0501508678361 19.94915707787zM133.4668229171473 83.1447869856883C132.0031280854087 83.1447869856883 130.7830363651463 84.1205835401807 130.2951380879001 85.3406752604431C130.051534976424 85.8285735376892 109.0670646747806 139.9963551807184 76.6152547221171 160.4922351508217C70.2711930093289 164.3961134230851 65.3922102368671 168.5442868611185 67.3438033458518 177.8164302916778C69.2953964548365 186.844278556467 75.3958550561487 191.9682485489928 86.3752964299226 194.4084319895176C105.8946877912395 198.5566054275511 126.8784660385889 168.3006837496424 134.6869146374097 155.856163435542C162.0140625432534 195.6278316554861 216.6697424635287 258.0919601745822 296.2130789034169 265.4118184418628C300.0505199634595 265.8616537329409 301.4692312660902 260.1736594908326 297.9210689009255 258.5798584518284C296.7009771806631 258.0919601745822 182.9971487363088 206.1193747520139 136.8821108578705 85.096380094673C136.1506094691482 83.8769804287045 134.9305177488858 83.1447869856883 133.4668229171472 83.1447869856883z" />
    <glyph glyph-name="021-facebook"
      unicode="&#xF115;"
      horiz-adv-x="300" d="M121.2 134.4C120.3 134.4 100.5 134.4 91.5 134.4C86.7 134.4 85.2 136.2 85.2 140.7C85.2 152.7 85.2 165 85.2 177C85.2 181.8 87 183.3 91.5 183.3H121.2C121.2 184.2 121.2 201.6 121.2 209.7C121.2 221.7 123.3 233.1 129.3 243.6C135.6 254.4 144.6 261.6 156 265.8C163.5 268.5 171 269.7 179.1 269.7H208.5C212.7 269.7 214.5 267.9 214.5 263.7V229.5C214.5 225.3 212.7 223.5 208.5 223.5C200.4 223.5 192.2999999999999 223.5 184.2 223.2C176.1 223.2 171.9 219.3 171.9 210.9C171.6 201.9 171.9 193.2 171.9 183.9H206.7C211.5 183.9 213.3 182.1 213.3 177.3V141C213.3 136.2 211.8 134.7 206.7 134.7C195.9 134.7 172.8 134.7 171.9 134.7V36.9C171.9 31.8 170.4 30 165 30C152.4 30 140.0999999999999 30 127.5 30C123 30 121.2 31.8 121.2 36.3C121.2 67.8 121.2 133.5 121.2 134.4z" />
    <glyph glyph-name="022-facebook-1"
      unicode="&#xF116;"
      horiz-adv-x="299.4140858917255" d="M169.9218882751475 0.5859141082745H121.8795868655927C113.8549893636711 0.5859141082745 107.3272788927562 7.1136245791894 107.3272788927562 15.1382226670486V123.5000475390662H79.2984073670631C71.2738092792039 123.5000475390662 64.746098808289 130.0300466820349 64.746098808289 138.0523555119028V184.4856173426264C64.746098808289 192.5102148445481 71.2738092792039 199.0379253154629 79.2984073670631 199.0379253154629H107.3272788927562V222.2900329914088C107.3272788927562 245.3453019801017 114.5668120755322 264.9604771453498 128.2608135360011 279.0115342977761C142.0166126575479 293.1266777833342 161.2403997062812 300.5859375457764 183.8539268635881 300.5859375457764L220.4933340229167 300.5264285567523C228.5041989065781 300.5126953525543 235.0204648453488 293.9849848816395 235.0204648453488 285.9741199979781V242.8619340126511C235.0204648453488 234.8373359247919 228.4950436324253 228.3096260398146 220.4727348025574 228.3096260398146L195.8038483049881 228.3004701797243C188.2805016234767 228.3004701797243 186.3647606534969 226.7921392025109 185.9550619886767 226.3297975648279C185.2798609593641 225.5630437939878 184.4764855059754 223.3955324918385 184.4764855059754 217.41027186799V199.0402139875167H218.6187914936555C221.1891348585261 199.0402139875167 223.6793694280757 198.4062113989228 225.8194149077668 197.2114484149569C230.4359617528095 194.6319497759336 233.3061399067296 189.7544773245686 233.3061399067296 184.483328084635L233.2878293584241 138.050066839849C233.2878293584241 130.0300466820349 226.7601188875092 123.50233621112 218.7355213855875 123.50233621112H184.4764855059754V15.1382226670486C184.4764855059754 7.1136245791894 177.9464857770691 0.5859141082745 169.9218882751475 0.5859141082745zM124.9145605402001 18.1731957557184H166.8869146005402V131.3735833104362C166.8869146005402 136.7317073618521 171.2471143552433 141.0896178585639 176.6029497346055 141.0896178585639H215.7005477109803L215.7165695872321 181.450643668019H176.6006610625517C171.244825097252 181.450643668019 166.8869146005403 185.8085541647308 166.8869146005403 191.1666782161467V217.41027186799C166.8869146005403 224.281305412602 167.5850046941411 232.0953316090103 172.7714672087084 237.9684396850344C179.0382526592385 245.0683550834653 188.9145042120707 245.8877524131057 195.799270374943 245.8877524131057L217.4331837838425 245.8969071013209V282.943724253416L183.8401936593902 282.9986558983325C147.4983332029948 282.9986558983325 124.9145605402001 259.73510427618 124.9145605402001 222.2900329914088V191.1666782161467C124.9145605402001 185.8108434227221 120.5566500434883 181.450643668019 115.2008146641262 181.450643668019H82.3333804557329V141.0896178585639H115.2008146641262C120.5566500434883 141.0896178585639 124.9145605402001 136.7317073618521 124.9145605402001 131.3735833104362zM220.4590015983595 282.9391463233708H220.4612902704133zM220.4590015983595 282.9391463233708" />
    <glyph glyph-name="023-facebook-logo"
      unicode="&#xF117;"
      horiz-adv-x="300.00312100121715" d="M224.9898567460441 299.9375799756562L186.0865765737649 300C142.3800755282295 300 114.1350145126557 271.0215036983865 114.1350145126557 226.1695952061422V192.1288349302456H75.0195062576074C71.6394619393902 192.1288349302456 68.9023438719141 189.3885958615524 68.9023438719141 186.0085515433351V136.6873693080741C68.9023438719141 133.3073249898568 71.6425829406073 130.5702069223807 75.0195062576074 130.5702069223807H114.1350145126557V6.1171623856933C114.1350145126557 2.737118067476 116.8721325801317 1e-13 120.252176898349 1e-13H171.2867888018477C174.6668331200649 1e-13 177.403951187541 2.7402390686933 177.403951187541 6.1171623856933V130.5702069223807H223.1391030242502C226.5191473424675 130.5702069223807 229.2562654099435 133.3073249898568 229.2562654099435 136.6873693080741L229.2749914172467 186.0085515433351C229.2749914172467 187.6314721762742 228.6289441652883 189.185730782435 227.4835367185794 190.3342592303611C226.3381292718704 191.4827876782872 224.7776286632752 192.1288349302457 223.1547080303362 192.1288349302457H177.403951187541V220.9856121843888C177.403951187541 234.8553415935833 180.7090914765457 241.896320339565 198.7765675228613 241.896320339565L224.9836147436098 241.9056833432166C228.3605380606099 241.9056833432166 231.0976561280859 244.6459224119098 231.0976561280859 248.0228457289099V293.8204175899629C231.0976561280859 297.1942199057458 228.3636590618271 299.9313379732218 224.9898567460441 299.9375799756562z" />
    <glyph glyph-name="024-linkedin"
      unicode="&#xF118;"
      horiz-adv-x="300" d="M270 30V117.9C270 161.1 260.7 194.1 210.3 194.1C186 194.1 169.8 180.9 163.2 168.3H162.6V190.2H114.9V30H164.7V109.5C164.7 130.5 168.6 150.6 194.4 150.6C219.9 150.6 220.2 126.9 220.2 108.3V30.3H270zM33.9 190.2H83.7V29.9999999999999H33.9zM58.8 270C42.9 270 30 257.1 30 241.2S42.9 212.1 58.8 212.1S87.6 225.3 87.6 241.2S74.7 270 58.8 270z" />
    <glyph glyph-name="025-instagram-logo"
      unicode="&#xF119;"
      horiz-adv-x="300" d="M223.9646484375 0H76.0353515625C34.06171875 0.0474609375 0.0474609375 34.06171875 0 76.0353515625V223.9646484375C0.0474609375 265.93828125 34.06171875 299.9525390625 76.0353515625 300H223.9640625C265.93828125 299.9525390625 299.9525390625 265.93828125 300 223.9646484375V76.0359375C299.9525390625 34.06171875 265.93828125 0.0474609375 223.9646484375 0zM76.0353515625 279.2900390625C45.49453125 279.25546875 20.74453125 254.50546875 20.7099609375 223.9646484375V76.0359375C20.74453125 45.4951171875 45.49453125 20.7451171875 76.0353515625 20.710546875H223.9640625C254.5048828125 20.7451171875 279.2548828125 45.4951171875 279.289453125 76.0359375V223.9646484375C279.2548828125 254.50546875 254.5048828125 279.25546875 223.9640625 279.2900390625H76.0353515625zM150 73.9857421875C108.01875 73.9857421875 73.9857421875 108.0181640625 73.9857421875 150S108.01875 226.0142578125 150 226.0142578125S226.0142578125 191.98125 226.0142578125 150C226.0142578125 150 226.0142578125 150 226.0142578125 150C225.966796875 108.0380859375 191.9619140625 74.033203125 150 73.9857421875zM150 205.3037109375C119.45625 205.3037109375 94.695703125 180.5431640625 94.695703125 149.9994140625S119.45625 94.6951171875001 150 94.6951171875001S205.304296875 119.4556640625 205.304296875 149.9994140625C205.304296875 149.9994140625 205.304296875 150 205.304296875 150C205.2697265625 180.5291015625 180.5291015625 205.2697265625 150 205.3037109375L150 205.3037109375zM235.093359375 207.6732421875C219.9498046875 207.6732421875 207.673828125 219.94921875 207.673828125 235.0927734375C207.673828125 250.236328125 219.9498046875 262.5123046875 235.093359375 262.5123046875C250.2369140625 262.5123046875 262.512890625 250.236328125 262.512890625 235.0927734375C262.512890625 227.820703125 259.62421875 220.846875 254.48203125 215.7046875L254.48203125 215.7046875C249.3515625 210.5455078125 242.36953125 207.6533203125 235.093359375 207.6732421875zM247.1595703125 223.0265625L247.1595703125 223.0265625zM235.093359375 241.80234375C231.387890625 241.80234375 228.3837890625 238.7982421875 228.3837890625 235.0927734375C228.3837890625 231.3873046875 231.387890625 228.383203125 235.093359375 228.383203125C238.798828125 228.383203125 241.8029296875 231.3873046875 241.8029296875 235.0927734375C241.8029296875 236.872265625 241.0957031250001 238.5791015625 239.837109375 239.8376953125C238.58203125 241.0998046875 236.8734375 241.80703125 235.093359375 241.80234375z" />
    <glyph glyph-name="026-video"
      unicode="&#xF11A;"
      horiz-adv-x="300" d="M220.7634375 8.271796875H79.2365625A71.045859375 71.045859375 0 0 0 8.2700390625 79.2365625V220.7634375A71.045859375 71.045859375 0 0 0 79.2365625 291.728203125H220.76390625A71.045859375 71.045859375 0 0 0 291.7304296875 220.7634375V79.23609375A71.045859375 71.045859375 0 0 0 220.7634375 8.271796875zM79.2365625 279.9609375A59.2653515625 59.2653515625 0 0 1 20.0380078125 220.7634375V79.23609375A59.2653515625 59.2653515625 0 0 1 79.2365625 20.0390625H220.76390625A59.2653515625 59.2653515625 0 0 1 279.9624609375 79.23703125V220.7634375A59.2653515625 59.2653515625 0 0 1 220.7634375 279.9609375zM150 77.5245703125A72.4754296875 72.4754296875 0 1 0 222.4754296875 150.001171875A72.5581640625 72.5581640625 0 0 0 150 77.5245703125zM150 210.7081640625A60.7086328125 60.7086328125 0 1 1 210.7074609375 150.000703125A60.7761328125 60.7761328125 0 0 1 150 210.7086328125zM225.1030078125 210.91921875A21.09890625 21.09890625 0 1 0 246.2030859375 232.0175390625A21.1226953125 21.1226953125 0 0 0 225.1030078125 210.91921875zM225.1030078125 241.350234375A9.332109375 9.332109375 0 1 1 234.4351171875 232.0175390625A9.3432421875 9.3432421875 0 0 1 225.1030078125 241.3501171875z" />
    <glyph glyph-name="027-telephone"
      unicode="&#xF11B;"
      horiz-adv-x="300" d="M228.0801564841019 101.5440319627102C218.2790910604295 111.2202430497753 206.0433660729149 111.2202430497753 196.3047278175462 101.5440319627102C188.8758947894124 94.17762610288 181.4470617612785 86.8112202430498 174.143083069752 79.3199600466123C172.1454136840353 77.259863492592 170.4598801398369 76.8228733144665 168.0252205759947 78.1962710171467C163.218328616614 80.8182120858998 158.099300815715 82.9407358082238 153.4796903612452 85.8123855501914C131.9423172964874 99.3590810720826 113.9008656567338 116.7762610287998 97.9195105710005 136.3783918761445C89.9912601964375 146.1170301315132 82.9369901781255 156.5423672382221 78.0052438821375 168.2786748793075C77.0064091892792 170.650907274846 77.1936906941901 172.2115864824372 79.1289329116031 174.1468286998502C86.557765939737 181.3259530547694 93.7993174629599 188.6923589145997 101.1032961544864 196.0587647744298C111.2789245879807 206.2968203762278 111.2789245879807 218.2828366905277 101.0408689861828 228.5833194606293C95.2351423339437 234.451473281172 89.4294156817047 240.1947727651074 83.6236890294656 246.0629265856501C77.6306808723156 252.0559347428001 71.7000998834693 258.1113700682537 65.6446645580156 264.0419510571001C55.8435991343433 273.5933078075579 43.6078741468287 273.5933078075579 33.86923589146 263.9795238887964C26.3779756950225 256.6131180289662 19.1988513401032 249.0594306642251 11.5827368070584 241.8178791410022C4.5284667887464 235.1381721325121 0.9701181954386 226.9602130847345 0.2209921757949 217.4088563342767C-0.9651240219744 201.8644914266689 2.842933244548 187.1941068753121 8.2116697186616 172.8982853337773C19.1988513401032 143.3078075578492 35.9293324454803 117.0259697020143 56.2181621441651 92.9290827368071C83.6236890294656 60.342100882304 116.335525220576 34.5596803728983 154.6033793907108 15.9563842184118C171.8332778425171 7.5911436657233 189.6874479773597 1.1611453304478 209.1022973197936 0.0998834692858C222.4617113367737 -0.6492425503579 234.0731646412519 2.721824538039 243.3748127184951 13.1471616447478C249.7423838854669 20.2638588313634 256.9215082403862 26.7562843349426 263.6636424171799 33.56084568004C273.6519893457633 43.6740469452305 273.7144165140669 55.9097719327451 263.7884967537873 65.8981188613284C251.9273347760945 77.8217080073248 240.0037456300982 89.6828699850175 228.0801564841019 101.5440319627102zM216.1565673381055 151.2984851007159L239.1921924421508 155.2313967038456C235.5714166805394 176.3942067587815 225.5830697519561 195.5593474280007 210.4132678541701 210.7915764940902C194.3694856001332 226.8353587481272 174.0806559014483 236.9485600133179 151.7317296487431 240.0699184285001L148.4855168969535 216.9094389878475C165.7778425170634 214.4747794240054 181.5094889295821 206.6713833860496 193.9324954220076 194.2483768936242C205.668803063093 182.5120692525387 213.3473447644415 167.654403196271 216.1565673381055 151.2984851007159zM252.1770434493091 251.4316630597636C225.5830697519561 278.0256367571167 191.934826036291 294.8185450307974 154.7906608956218 300L151.5444481438322 276.8395205593474C183.6320126519061 272.344764441485 212.723073081405 257.7992342267355 235.6962710171467 234.8884634592975C257.4833527551191 213.1013817213251 271.779174296654 185.5710004994174 276.9606292658565 155.2938238721492L299.9962543699018 159.2267354752789C293.9408190444481 194.3108040619278 277.397619443982 226.1486598967871 252.1770434493091 251.4316630597636z" />
    <glyph glyph-name="028-phone-call-1"
      unicode="&#xF11C;"
      horiz-adv-x="300" d="M237.0945070345247 114.1606480289401C230.9527528144431 120.5556704642829 223.544657518056 123.9747913703077 215.6933428449619 123.9747913703077C207.9053452256831 123.9747913703077 200.4339328754807 120.6189875180982 194.038910440138 114.2239650827554L174.0307214345112 94.2790931309439C172.384478035314 95.1655318843578 170.7382346361169 95.9886535839563 169.155308290735 96.8117752835549C166.8758943533851 97.9514822522299 164.7231145236658 99.0278721670895 162.8869199630229 100.1675791357645C144.1450720337016 112.0711852530361 127.1127845573927 127.5838634377784 110.7769846730518 147.6553694972204C102.8623529461425 157.6594640000338 97.5437204256595 166.0806321574654 93.6813801429277 174.6284344225274C98.8733785557802 179.377213458673 103.6854746457411 184.3159436562644 108.3709366280714 189.06472269241C110.1438141348991 190.8376001992377 111.9166916417268 192.6737947598807 113.6895691485545 194.4466722667084C126.9861504497622 207.7432535679161 126.9861504497622 224.9654922056707 113.6895691485545 238.2620735068784L96.4040134569845 255.5476291984484C94.441184788711 257.5104578667219 92.4150390666222 259.5366035888107 90.515527452164 261.5627493108995C86.7165042232475 265.4884066474465 82.7275298328852 269.5406980916241 78.6119213348923 273.3397213205406C72.4701671148107 279.4181584868069 65.1253888722389 282.6473282313859 57.4007083067753 282.6473282313859S42.2046153911094 279.4181584868069 35.872910009582 273.3397213205406C35.8095929557667 273.2764042667253 35.8095929557667 273.2764042667253 35.7462759019514 273.21308721291L14.2184776047581 251.4953377542708C6.1138947164029 243.3907548659156 1.4917497878879 233.5132944707328 0.4786769268435 222.0529077301681C-1.0409323647231 203.5643280161079 4.4043342633905 186.3420893783532 8.5832598151986 175.0716537992344C18.8406225332731 147.4021012819594 34.1633495565696 121.7586944867731 57.0208059838837 94.2790931309439C84.753675554974 61.1642739855553 118.1217629156237 35.0143307598469 156.238629312419 16.589068099602C170.8015516899322 9.6875092337371 190.2398872112214 1.5196092915666 211.9576366698607 0.1266341076306C213.2872947999814 0.0633170538153 214.6802699839175 1e-13 215.946611060223 1e-13C230.5728504915514 1e-13 242.8563589317147 5.2553154666679 252.4805511116364 15.7026293461882C252.5438681654517 15.8292634538187 252.6705022730822 15.892580507634 252.7338193268975 16.0192146152646C256.0263061252918 20.0081890056268 259.8253293542083 23.6172610730975 263.8143037445705 27.4796013558292C266.5369370586274 30.0756005622555 269.3228874264994 32.7982338763123 272.0455207405563 35.6475012979997C278.3139090682684 42.169157840973 281.6063958666627 49.7672042988059 281.6063958666627 57.5552019180847C281.6063958666627 65.4065165911787 278.2505920144532 72.9412459951964 271.8555695791104 79.2729513767239L237.0945070345247 114.1606480289401zM259.762012300393 47.487790361456C259.6986952465777 47.487790361456 259.6986952465777 47.4244733076407 259.762012300393 47.487790361456C257.2926472015973 44.8284741012145 254.7599650489863 42.422426056234 252.0373317349295 39.7631097959925C247.9217232369367 35.8374524594454 243.7427976851285 31.7218439614526 239.8171403485815 27.0996990329376C233.4221179132387 20.2614572208879 225.8873885092211 17.0322874763089 216.0099281140382 17.0322874763089C215.0601723068091 17.0322874763089 214.0470994457647 17.0322874763089 213.0973436385356 17.0956045301242C194.292178655399 18.2986285526144 176.8166718023832 25.6434067951863 163.7100416626214 31.9117951228985C127.8725892031759 49.2606678682837 96.4040134569845 73.8910018024255 70.2540702312761 105.1063093333559C48.6629548802674 131.1296184514338 34.2266666103848 155.1900989012381 24.6657914842783 181.0234568578702C18.7773054794578 196.7894032578735 16.6245256497385 209.0729116980368 17.5742814569676 220.6599325462321C18.2074519951203 228.0680278426192 21.0567194168077 234.2097820627008 26.3120348834755 239.4650975293686L47.9031502344841 261.0562128803773C51.0056858714326 263.9687973558799 54.2981726698269 265.5517237012617 57.5273424144059 265.5517237012617C61.5163168047682 265.5517237012617 64.7454865493472 263.1456756562813 66.771632271436 261.1195299341926C66.8349493252512 261.0562128803773 66.8982663790665 260.992895826562 66.9615834328818 260.9295787727467C70.8239237156135 257.3205067052761 74.4963128368995 253.5848005301749 78.3586531196312 249.5958261398126C80.3214817879047 247.5696804177238 82.3476275099935 245.543534695635 84.3737732320823 243.4540719197309L101.6593289236523 226.168516228161C108.3709366280714 219.4569085237419 108.3709366280714 213.2518372498449 101.6593289236523 206.5402295454258C99.8231343630093 204.7040349847829 98.0502568561816 202.8678404241399 96.2140622955386 201.0949629173122C90.8954297750556 195.6496962891986 85.8300654698336 190.5843319839766 80.3214817879047 185.6456017863852C80.1948476802742 185.5189676787547 80.0682135726436 185.4556506249394 80.0048965188284 185.3290165173089C74.5596298907147 179.8837498891952 75.5727027517591 174.5651173687122 76.7124097204341 170.9560453012415C76.7757267742493 170.7660941397957 76.8390438280646 170.5761429783499 76.9023608818799 170.386191816904C81.3978717027644 159.4956585606768 87.7295770842918 149.2382958426023 97.3537692642136 137.0181044562543L97.4170863180288 136.954787402439C114.8925931710446 115.4269891052457 133.3178558312896 98.6479698441979 153.6426301059927 85.7946079196971C156.2386293124189 84.1483645205 158.8979455726605 82.8187063903793 161.4306277252715 81.5523653140737C163.7100416626214 80.4126583453988 165.8628214923407 79.3362684305392 167.6990160529836 78.1965614618642C167.9522842682447 78.0699273542336 168.2055524835059 77.8799761927878 168.4588206987669 77.7533420851573C170.6116005284862 76.6769521702976 172.6377462505751 76.1704157397754 174.7272090264791 76.1704157397754C179.9825244931469 76.1704157397754 183.2750112915412 79.4629025381697 184.3514012064008 80.5392924530293L206.0058336112247 102.1937248578533C208.1586134409441 104.3465046875726 211.5777343469689 106.9425038939989 215.5667087373312 106.9425038939989C219.4923660738782 106.9425038939989 222.7215358184573 104.4731387952031 224.6843644867308 102.3203589654838C224.7476815405461 102.2570419116685 224.7476815405461 102.2570419116685 224.8109985943613 102.1937248578533L259.6986952465776 67.3060282056369C266.220351789551 60.8476887164789 266.220351789551 54.199398065875 259.762012300393 47.487790361456zM162.1271153172396 228.6378813269566C178.7161834168415 225.8519309590845 193.7856422248768 218.0006162859905 205.815882449779 205.9703760610883S225.63412029396 178.8706770281508 228.4833877156473 162.2816089285488C229.1798753076154 158.1026833767407 232.788947375086 155.1900989012381 236.9045558730789 155.1900989012381C237.4110923036011 155.1900989012381 237.854311680308 155.2534159550533 238.3608481108302 155.3167330088686C243.0463100931605 156.0765376546519 246.148845730109 160.5087314217211 245.3890410843257 165.1941934040515C241.9699201783009 185.2656994634935 232.4723621060097 203.5643280161079 217.9727567823118 218.0639333398058S185.1745229059995 242.0610967357948 165.1030168465575 245.4802176418197C160.4175548642271 246.240022287603 156.0486781509732 243.1374866506545 155.2255564513747 238.5153417221395S157.4416533349092 229.3976859727399 162.1271153172396 228.6378813269566zM299.651756204016 167.6635585028472C294.0165384144566 200.7150605944205 278.440543175899 230.7906611566759 254.5066968337252 254.7245074988498S200.4972499292959 294.2343490795811 167.4457478377226 299.8695668691406C162.8236029092075 300.6926885687392 158.4547261959536 297.5268358779754 157.631604496355 292.9046909494603C156.8717998505717 288.21922896713 159.9743354875202 283.8503522538761 164.6597974698505 283.0272305542775C194.1655445477685 278.0251833028708 221.0752924192602 264.0321144096951 242.476456608823 242.6942672739476C263.8776207983859 221.2931030843848 277.8073726377463 194.383355212893 282.809419889153 164.8776081349751C283.505907481121 160.698682583167 287.1149795485917 157.7860981076643 291.2305880465845 157.7860981076643C291.7371244771067 157.7860981076643 292.1803438538136 157.8494151614796 292.6868802843358 157.9127322152949C297.3090252128509 158.6092198072629 300.4748779036146 163.0414135743321 299.651756204016 167.6635585028472z" />
    <glyph glyph-name="036-sparkle"
      unicode="&#xF11D;"
      horiz-adv-x="300" d="M131.25 168.75L187.5 119.128125L243.75 168.75L194.128125 112.5L243.75 56.25L187.5 105.871875L131.25 56.25L180.871875 112.5zM187.5 220.3125L192.1875 117.1875L295.3125 112.5L192.1875 107.8125L187.5 4.6875L182.8125 107.8125L79.6875 112.5L182.8125 117.1875zM51.5625 248.4375L84.375 222.253125L117.1875 248.4375L91.003125 215.625L117.1875 182.8125L84.375 208.996875L51.5625 182.8125L77.746875 215.625zM84.375 295.3125L89.0625 220.3125L164.0625 215.625L89.0625 210.9375L84.375 135.9375L79.6875 210.9375L4.6875 215.625L79.6875 220.3125z" />
    <glyph glyph-name="037-compass"
      unicode="&#xF11E;"
      horiz-adv-x="300" d="M296.4046875 154.320703125L176.5060546875 176.5060546875L154.320703125 296.4052734375C153.93515625 298.48828125 152.11875 300 150 300C147.88125 300 146.06484375 298.48828125 145.679296875 296.4052734375L123.4939453125 176.5060546875L3.5953125 154.320703125C1.51171875 153.93515625 0 152.1181640625 0 150S1.51171875 146.06484375 3.5947265625 145.679296875L123.493359375 123.4939453125L145.6787109375 3.5947265625C146.06484375 1.51171875 147.88125 0 150 0C152.11875 0 153.93515625 1.51171875 154.320703125 3.5947265625L176.5060546875 123.4939453125L296.4046875 145.679296875C298.48828125 146.06484375 300 147.8818359375 300 150S298.48828125 153.93515625 296.4046875 154.320703125zM150 271.4548828125L167.9935546875 174.2091796875L149.9888671875 156.214453125L132.005859375 174.207421875L150 271.4548828125zM28.545703125 150L125.7908203125 167.9935546875L143.775 150L125.79140625 132.0064453125L28.545703125 150zM150 28.5451171875L132.0064453125 125.79140625L150 143.775L167.9935546875 125.79140625L150 28.5451171875zM174.207421875 132.0064453125L156.214453125 149.989453125L174.2091796875 167.994140625L271.4548828125 150L174.207421875 132.0064453125zM242.492578125 242.504296875C241.0634765625 243.9328125 238.8451171875 244.2029296875 237.113671875 243.1587890625L184.2146484375 211.2169921875C182.1369140625 209.9625 181.4701171875 207.261328125 182.724609375 205.18359375C183.9779296875 203.1064453125 186.6791015625 202.440234375 188.7568359375 203.6935546875L226.4279296875 226.440234375L203.3279296875 188.183203125C202.0734375 186.10546875 202.740234375 183.404296875 204.81796875 182.1498046875C205.5287109375 181.7208984375 206.312109375 181.5169921875 207.085546875 181.5169921875C208.573828125 181.5169921875 210.02578125 182.2734375 210.85078125 183.6404296875L243.1464843750001 237.1259765625C244.1912109375 238.85625 243.92109375 241.07578125 242.492578125 242.504296875zM117.2765625 94.8421875C116.02265625 96.9193359375 113.3208984375 97.585546875 111.2431640625 96.331640625L73.5720703125 73.5849609374999L96.6720703125 111.842578125C97.9265625 113.9203125 97.259765625 116.621484375 95.18203125 117.8759765625C93.104296875 119.129296875 90.403125 118.4630859375 89.14921875 116.3859375L56.8546875 62.900390625C55.8099609375 61.1701171875 56.080078125 58.9505859375 57.50859375 57.5220703125C58.355859375 56.6748046875 59.4814453125 56.234765625 60.617578125 56.234765625C61.3974609375 56.234765625 62.183203125 56.4421875 62.8875 56.8669921875001L115.7865234375 88.8087890625C117.8642578125 90.06328125 118.5310546875 92.764453125 117.2765625 94.8421875zM243.1458984375 62.8998046875L211.2041015625 115.798828125C209.9501953125 117.8765625 207.2490234375 118.543359375 205.1712890625 117.289453125C203.0935546875 116.0349609375 202.4267578125 113.3337890625 203.68125 111.256640625L226.42734375 73.5849609375L188.1703125 96.685546875C186.0919921875 97.939453125 183.39140625 97.27265625 182.1375 95.1955078125C180.8830078125 93.1177734375 181.5498046875 90.4166015625 183.6275390625 89.162109375L237.1130859375 56.86640625C237.8173828125 56.441015625 238.603125 56.2341796875 239.3830078125 56.2341796875C240.5191406250001 56.2341796875 241.6447265625 56.6736328125 242.4919921875 57.521484375C243.9205078125 58.9505859375 244.190625 61.1701171875 243.1458984375 62.8998046875zM116.3724609375 210.8630859375L62.8875 243.158203125C61.1572265625 244.2029296875 58.9376953125 243.9322265625 57.50859375 242.5037109375C56.080078125 241.074609375 55.8099609375 238.855078125 56.8546875 237.125390625L88.7958984375 184.2263671875C89.6208984375 182.859375 91.0728515625 182.1029296875 92.5611328125 182.1029296875C93.3345703125 182.1029296875 94.11796875 182.307421875 94.8287109375 182.7357421875C96.9064453125 183.990234375 97.5732421875 186.69140625 96.31875 188.769140625L73.57265625 226.440234375L111.8296875 203.3396484375C113.907421875 202.0857421875 116.60859375 202.7525390625 117.8625 204.8302734375C119.1169921875 206.907421875 118.4501953125 209.60859375 116.3724609375 210.8630859375z" />
    <glyph glyph-name="038-star"
      unicode="&#xF11F;"
      horiz-adv-x="300" d="M291.09375 207.1875L290.21484375 209.35546875L162.71484375 162.71484375L209.35546875 290.21484375L207.1875000000001 291.09375L150.0000000000001 167.98828125L92.8125000000001 291.09375L90.6445312500001 290.21484375L137.2851562500001 162.71484375L9.7851562500001 209.35546875L8.9062500000001 207.1875L132.0117187500001 150L8.9062500000001 92.8125L9.7851562500001 90.64453125L137.2851562500001 137.28515625L90.6445312500001 9.7851562499999L92.8125000000001 8.9062499999999L150.0000000000001 132.01171875L207.1875000000001 8.9062499999999L209.3554687500001 9.7851562499999L162.7148437500001 137.28515625L290.2148437500001 90.64453125L291.0937500000001 92.8124999999999L167.9882812500001 150z" />
    <glyph glyph-name="039-star-1"
      unicode="&#xF120;"
      horiz-adv-x="300" d="M281.1328125 160.6640625C275.625 160.6640625 271.11328125 156.50390625 270.52734375 151.171875H152.8125L209.296875 207.65625L207.65625 209.296875L151.171875 152.8125V270.46875C156.50390625 271.0546875 160.6640624999999 275.56640625 160.6640624999999 281.07421875C160.6640624999999 286.9921875 155.859375 291.73828125 150 291.73828125S139.3359375 286.93359375 139.3359375 281.07421875C139.3359375 275.56640625 143.49609375 271.0546875 148.828125 270.46875V152.8125L92.3437499999999 209.296875L90.7031249999999 207.65625L147.1874999999999 151.171875H29.5312499999999C28.9453124999999 156.50390625 24.4335937499999 160.6640625 18.9257812499999 160.6640625C13.0078124999999 160.6640625 8.2617187499999 155.859375 8.2617187499999 150S13.0664062499999 139.3359375 18.9257812499999 139.3359375C24.4335937499999 139.3359375 28.9453124999999 143.49609375 29.5312499999999 148.828125H147.1874999999999L90.7031249999999 92.34375L92.3437499999999 90.703125L148.828125 147.1875V29.53125C143.49609375 28.9453125 139.3359375 24.43359375 139.3359375 18.92578125C139.3359375 13.0078125 144.140625 8.26171875 150 8.26171875S160.6640624999999 13.06640625 160.6640624999999 18.92578125C160.6640624999999 24.43359375 156.5039062499999 28.9453125 151.171875 29.53125V147.1875L207.6562499999999 90.703125L209.2968749999999 92.3437500000001L152.8124999999999 148.8281250000001H270.4687499999999C271.0546874999999 143.4960937500001 275.5664062499999 139.3359375000001 281.07421875 139.3359375000001C286.9921875 139.3359375000001 291.73828125 144.1406250000001 291.73828125 150.0000000000001S286.9921874999999 160.6640625000001 281.1328124999999 160.6640625000001z" />
    <glyph glyph-name="040-star-2"
      unicode="&#xF121;"
      horiz-adv-x="300" d="M150 290.625C143.73046875 161.42578125 138.57421875 156.26953125 9.375 150C138.57421875 143.73046875 143.73046875 138.57421875 150 9.375C156.26953125 138.57421875 161.42578125 143.73046875 290.625 150C161.42578125 156.26953125 156.26953125 161.42578125 150 290.625z" />
    <glyph glyph-name="041-circles"
      unicode="&#xF122;"
      horiz-adv-x="300" d="M201.6796875 240.1171875C182.4609375 240.1171875 164.6484375 234.08203125 150 223.76953125C135.3515625 234.08203125 117.5390625 240.1171875 98.3203125 240.1171875C48.6328125 240.1171875 8.203125 199.6875 8.203125 150S48.6328125 59.8828125 98.3203125 59.8828125C117.5390625 59.8828125 135.3515625 65.91796875 150 76.23046875C164.6484375 65.91796875 182.4609375 59.8828125 201.6796875 59.8828125C251.3671875 59.8828125 291.796875 100.3125 291.796875 150S251.3671875 240.1171875 201.6796875 240.1171875zM160.6640625 211.69921875L115.48828125 166.46484375C119.70703125 188.73046875 132.36328125 208.0078125 150 220.8984375C153.80859375 218.0859375 157.3828125 215.0390625 160.6640625 211.69921875zM130.60546875 98.61328125C128.14453125 102.01171875 125.91796875 105.64453125 123.92578125 109.39453125L183.92578125 169.3359375C185.0390625 164.35546875 185.7421875 159.19921875 185.9765625 153.984375zM117.12890625 126.5625C115.83984375 131.30859375 114.90234375 136.23046875 114.375 141.26953125L171.50390625 198.3984375C173.84765625 194.82421875 175.95703125 191.1328125 177.7734375 187.265625zM98.3203125 62.2265625C49.921875 62.2265625 10.546875 101.6015625 10.546875 150S49.921875 237.7734375 98.3203125 237.7734375C116.71875 237.7734375 133.88671875 232.03125 148.0078125 222.3046875C125.91796875 205.83984375 111.62109375 179.58984375 111.62109375 150S125.91796875 94.16015625 148.0078125 77.6953125C133.828125 67.96875 116.71875 62.2265625 98.3203125 62.2265625zM141.9140625 85.78125L182.98828125 126.9140625C177.65625 107.4609375 165.87890625 90.703125 150 79.1015625C147.1875 81.15234375 144.43359375 83.4375 141.9140625 85.78125zM201.6796875 62.2265625C183.28125 62.2265625 166.11328125 67.96875 151.9921875 77.6953125C174.08203125 94.16015625 188.37890625 120.41015625 188.37890625 150S174.08203125 205.83984375 151.9921875 222.3046875C166.11328125 232.03125 183.22265625 237.7734375 201.6796875 237.7734375C250.078125 237.7734375 289.453125 198.3984375 289.453125 150S250.078125 62.2265625 201.6796875 62.2265625z" />
    <glyph glyph-name="042-folded"
      unicode="&#xF123;"
      horiz-adv-x="300" d="M250.25390625 250.25390625C223.4765625 277.03125 187.8515625 291.796875 150 291.796875S76.5234375 277.03125 49.74609375 250.25390625S8.203125 187.8515625 8.203125 150S22.96875 76.5234375 49.74609375 49.74609375S112.1484375 8.203125 150 8.203125S223.4765625 22.96875 250.25390625 49.74609375S291.796875 112.1484375 291.796875 150S277.03125 223.4765625 250.25390625 250.25390625zM51.38671875 51.38671875C25.078125 77.75390625 10.546875 112.734375 10.546875 150S25.078125 222.2460937500001 51.38671875 248.6132812500001C70.8984375 268.1250000000001 95.15625 281.1328125000001 121.5234375 286.5820312500001C104.35546875 280.0781250000001 88.59375 267.7148437500001 75.64453125 250.1367187500001C55.8984375 223.359375 45 187.79296875 45 150S55.8984375 76.640625 75.64453125 49.86328125C88.59375 32.34375 104.35546875 19.921875 121.5234375 13.41796875C95.15625 18.8671875 70.8984375 31.875 51.38671875 51.38671875zM47.34375 150C47.34375 221.6601562500001 87.36328125 280.8984375000001 138.6328125 288.5742187500001C128.61328125 282.8906250000001 119.47265625 269.5898437500001 112.20703125 249.8437500000001C102.36328125 223.1835937500001 96.9140625 187.6757812500001 96.9140625 150S102.36328125 76.81640625 112.20703125 50.15625C119.4726562500001 30.41015625 128.61328125 17.109375 138.6328125 11.42578125C87.36328125 19.1015625 47.34375 78.33984375 47.34375 150zM148.828125 10.5468750000001C135.9375 11.3671875 123.75 25.60546875 114.375 50.9179687500001C104.58984375 77.3437500000001 99.2578125 112.5000000000001 99.2578125 149.9414062500001S104.6484375 222.5390625000001 114.375 248.9648437500001C123.75 274.3359375000001 135.9375 288.5742187500001 148.828125 289.3945312500001z" />
    <glyph glyph-name="043-saturn"
      unicode="&#xF124;"
      horiz-adv-x="300" d="M290.7421875 194.6484375C285.9375 209.70703125 261.328125 217.03125 223.125 214.8046875C223.76953125 214.04296875 224.4140625 213.33984375 225.05859375 212.578125C260.56640625 214.39453125 284.1796875 207.48046875 288.515625 193.9453125C292.20703125 182.28515625 281.25 166.11328125 258.3984375 149.58984375C254.94140625 147.0703125 251.30859375 144.609375 247.44140625 142.1484375C247.3828125 141.15234375 247.265625 140.15625 247.1484375 139.1015625C251.6015625000001 141.85546875 255.8203125 144.7265625 259.74609375 147.5390625C283.828125 165.05859375 294.78515625 181.7578125 290.7421875 194.6484375zM61.640625 87.24609375C33.45703125 87.59765625 15.17578125 94.51171875 11.484375 106.171875C7.20703125 119.70703125 22.5 138.984375 52.55859375 157.91015625C52.6171875 158.90625 52.734375 159.90234375 52.8515625 160.83984375C20.390625 140.625 4.51171875 120.46875 9.2578125 105.3515625C13.359375 92.4609375 31.93359375 85.1953125 61.640625 84.78515625H64.1015625C68.203125 84.78515625 72.48046875 84.90234375 76.875 85.1953125C76.171875 85.95703125 75.52734375 86.71875 74.8828125 87.5390625C70.3125 87.24609375 65.91796875 87.1875 61.640625 87.24609375zM76.875 85.1953125C94.8046875 65.0390625 120.87890625 52.265625 150 52.265625C200.33203125 52.265625 241.7578125 90.29296875 247.1484375 139.16015625C224.765625 125.21484375 196.171875 112.5 165 102.59765625C133.88671875 92.75390625 103.18359375 86.71875 76.875 85.1953125zM247.44140625 142.1484375C247.6171875 144.7265625 247.734375 147.36328125 247.734375 150C247.734375 173.7890625 239.23828125 195.64453125 225.05859375 212.578125C224.4140625 213.33984375 223.76953125 214.04296875 223.125 214.8046875C205.1953125 235.01953125 179.0625 247.734375 150 247.734375C96.03515625 247.734375 52.265625 203.96484375 52.265625 150C52.265625 126.2109375 60.76171875 104.4140625 74.8828125 87.48046875C101.3671875 88.76953125 132.59765625 94.86328125 164.296875 104.94140625C196.0546875 114.9609375 225 127.96875 247.44140625 142.1484375zM195.5859375 208.9453125C199.04296875 200.5078125 205.72265625 193.828125 214.1015625 190.4296875C205.6640625 187.03125 198.984375 180.3515625 195.5859375 171.9140625C192.12890625 180.3515625 185.44921875 187.03125 177.0703125 190.4296875C185.5078125 193.88671875 192.1875 200.56640625 195.5859375 208.9453125zM150 143.90625C156.38671875 146.54296875 161.484375 151.58203125 164.12109375 158.02734375C166.7578125 151.640625 171.796875 146.54296875 178.2421875 143.90625C171.796875 141.26953125 166.69921875 136.23046875 164.12109375 129.78515625C161.484375 136.171875 156.4453125 141.26953125 150 143.90625z" />
    <glyph glyph-name="044-overlapping"
      unicode="&#xF125;"
      horiz-adv-x="300" d="M204.609375 237.12890625C183.92578125 237.12890625 164.94140625 229.86328125 150 217.8515625C135.05859375 229.921875 116.015625 237.12890625 95.390625 237.12890625C47.34375 237.12890625 8.26171875 198.046875 8.26171875 150S47.34375 62.87109375 95.390625 62.87109375C116.07421875 62.87109375 135.05859375 70.13671875 150 82.1484375C164.94140625 70.078125 183.984375 62.87109375 204.609375 62.87109375C252.65625 62.87109375 291.73828125 101.953125 291.73828125 150S252.65625 237.1289062500001 204.609375 237.1289062500001zM148.18359375 83.73046875C133.7109375 72.1875 115.3125 65.2734375 95.390625 65.2734375C48.6328125 65.21484375 10.60546875 103.2421875 10.60546875 150S48.6328125 234.78515625 95.390625 234.78515625C115.3125 234.78515625 133.65234375 227.87109375 148.18359375 216.328125C129.43359375 200.33203125 117.5390625 176.54296875 117.5390625 150.05859375S129.43359375 99.66796875 148.18359375 83.73046875zM204.609375 65.21484375C184.6875 65.21484375 166.34765625 72.12890625 151.81640625 83.671875C170.56640625 99.66796875 182.4609375 123.45703125 182.4609375 149.94140625S170.56640625 200.2734375 151.81640625 216.2109375C166.2890625 227.75390625 184.6875 234.66796875 204.609375 234.66796875C251.3671875000001 234.66796875 289.39453125 196.640625 289.39453125 149.8828125S251.3671875 65.21484375 204.609375 65.21484375z" />
    <glyph glyph-name="045-heptagon"
      unicode="&#xF126;"
      horiz-adv-x="300" d="M265.059375 233.315625A2.34375 2.34375 0 0 1 263.7890625 234.9046875L151.0171875 289.21875A2.34375 2.34375 0 0 1 148.9828125 289.21875L36.2109375 234.9046875A2.34375 2.34375 0 0 1 34.940625 233.315625L7.0921875 111.28125A2.34375 2.34375 0 0 1 7.5609375 109.2984375L85.5796875 11.4375A2.34375 2.34375 0 0 1 87.4125 10.55625H212.56875A2.34375 2.34375 0 0 1 214.4015625 11.4375L292.4578125 109.2984375A2.34375 2.34375 0 0 1 292.9265625 111.28125zM128.60625 92.8125H171.39375L150 45.75zM152.34375 201.09375L190.575 182.68125L152.34375 154.6265625zM147.65625 154.6125L109.425 182.68125L147.65625 201.09375zM144.73125 150.946875L96.91875 137.60625L106.40625 179.11875zM145.771875 146.371875L124.415625 99.609375L97.790625 132.9984375zM149.990625 144.3421875L171.3890625 97.5H128.6109375zM154.209375 146.371875L202.190625 132.984375L175.565625 99.5953125zM155.25 150.946875L193.5984375 179.1046875L203.071875 137.60625zM192.796875 186.8109375L154.359375 205.3125L193.4484375 236.25zM107.165625 186.8109375L106.51875 236.25L145.6078125 205.3125zM92.26875 138.3421875L52.2890625 168.28125L101.7703125 180zM94.2328125 129.9421875L120.8953125 96.50625L71.64375 83.484375zM205.7671875 129.9421875L228.3562500000001 83.484375L179.1046875 96.50625zM207.73125 138.3421875L198.2296875 179.9671875L247.7109375 168.2484375zM150 207.8296875L110.8453125 238.81875H189.1546875zM102.5203125 184.9640625L52.9359375 173.2453125L101.85 234.5765625zM90.796875 133.59375L68.1046875 86.925L50.5828125 163.696875zM123.6515625 92.390625L145.190625 45L74.0625 79.2703125zM176.3484375 92.390625L225.9609375 79.265625L154.809375 45zM209.203125 133.59375L249.4171875 163.7015625L231.8953125 86.9203125zM197.484375 184.96875L198.1546875 234.58125L247.0640625 173.2453125zM109.7578125 243.50625L150 283.7859375L190.2421875 243.50625zM48.384375 175.06875L39.9046875 230.765625L98.6859375 238.125zM45.834375 163.44375L63.8765625 84.375L12.7171875 111.6375zM144.375 40.1953125L88.9078125 16.1015625L71.0953125 75.4921875zM228.928125 75.46875L211.115625 16.078125L155.625 40.1953125zM254.165625 163.4015625L287.2828125 111.6140625L236.1234375 84.375zM251.615625 175.0265625L201.3140625 238.125L260.0953125000001 230.765625zM196.9828125 243.3890625L161.3953125 279.0140625L248.8453125 236.9015625zM103.0171875 243.3890625L51.1546875 236.896875L138.6046875 279.009375zM44.428125 169.921875L14.6578125 123.365625L36.7640625 220.246875zM65.334375 78.28125L81.684375 23.8265625L18.28125 103.36875zM150 37.5328125L201.309375 15.24375H98.690625zM234.665625 78.3140625L281.71875 103.36875L218.315625 23.85zM255.571875 169.93125L263.2359375 220.25625L285.3421875 123.375z" />
    <glyph glyph-name="046-circles-1"
      unicode="&#xF127;"
      horiz-adv-x="300" d="M269.765625 115.1953125C281.6015625 125.68359375 287.9296875 137.578125 287.9296875 150C287.9296875 162.65625 281.25 174.9609375 268.65234375 185.7421875C281.19140625 196.46484375 287.9296875 208.7109375 287.9296875 221.54296875C287.9296875 240.46875 273.33984375 258.22265625 246.796875 271.46484375C220.546875 284.58984375 185.625 291.85546875 148.53515625 291.85546875S76.46484375 284.58984375 50.21484375 271.46484375C23.671875 258.22265625 9.08203125 240.4687500000001 9.08203125 221.54296875C9.08203125 208.7109375 15.76171875 196.46484375 28.359375 185.7421875C15.76171875 174.9609375 9.08203125 162.65625 9.08203125 150C9.08203125 137.16796875 15.76171875 124.921875 28.359375 114.19921875C15.76171875 103.41796875 9.08203125 91.11328125 9.08203125 78.45703125C9.08203125 59.53125 23.671875 41.77734375 50.21484375 28.53515625C76.46484375 15.4101562500001 111.38671875 8.14453125 148.4765625 8.14453125S220.48828125 15.3515625 246.73828125 28.53515625C250.83984375 30.5859375 254.70703125 32.75390625 258.22265625 35.0390625000001C277.96875 47.05078125 289.74609375 62.4609375000001 289.74609375 79.21875C289.74609375 92.40234375 282.421875 104.70703125 269.765625 115.1953125zM11.42578125 221.54296875C11.42578125 258.984375 72.890625 289.51171875 148.4765625 289.51171875S285.52734375 259.04296875 285.52734375 221.54296875C285.52734375 184.1015625 224.0625 153.57421875 148.4765625 153.57421875S11.42578125 184.1015625 11.42578125 221.54296875zM148.4765625 82.03125C72.890625 82.03125 11.42578125 112.55859375 11.42578125 150C11.42578125 162.0703125 17.9296875 173.84765625 30.17578125 184.21875C35.80078125 179.70703125 42.48046875 175.4296875 50.21484375 171.62109375C76.46484375 158.49609375 111.38671875 151.23046875 148.4765625 151.23046875S220.48828125 158.4375 246.73828125 171.62109375C254.47265625 175.48828125 261.15234375 179.70703125 266.77734375 184.21875C279.0234375 173.84765625 285.52734375 162.01171875 285.52734375 150C285.52734375 112.55859375 224.0625 82.03125 148.4765625 82.03125z" />
    <glyph glyph-name="047-twirl"
      unicode="&#xF128;"
      horiz-adv-x="300" d="M281.3671875 176.484375C287.98828125 195.3515625 279.55078125 216.2109375 261.4453125 225.1171875C260.2734375 245.09765625 244.51171875 261.09375 224.4140625 262.3828125C215.68359375 280.37109375 195 289.16015625 175.8984375 282.59765625C161.015625 295.8984375 138.515625 296.015625 123.3984375 282.65625C104.53125 289.21875 83.671875 280.72265625 74.82421875 262.55859375C55.37109375 261.4453125 39.375 246.03515625 37.734375 226.40625C20.21484375 217.6171875 11.66015625 197.34375 17.9296875 178.53515625C4.51171875 163.7109375 4.16015625 141.2109375 17.34375 125.9765625C10.6640625 107.16796875 18.92578125 86.25 36.97265625 77.2265625C37.96875 57.24609375 53.671875 41.1328125 73.76953125 39.7265625C80.5078125 25.60546875 94.5703125 17.109375 109.51171875 17.109375C113.73046875 17.109375 117.94921875 17.8125 122.16796875 19.21875C129.66796875 12.421875 139.16015625 9.0234375 148.7109375 9.0234375C157.96875 9.0234375 167.2265625 12.24609375 174.7265625 18.80859375C179.0625 17.28515625 183.515625 16.5234375 187.91015625 16.5234375C202.55859375 16.5234375 216.50390625 24.66796875 223.41796875 38.5546875000001C243.3984375 39.66796875 259.453125 55.37109375 260.80078125 75.46875C278.84765625 84.1406250000001 287.63671875 104.8242187500001 281.19140625 123.92578125C294.43359375 138.80859375 294.7265625 161.30859375 281.3671875 176.484375zM278.3203125 175.078125L276.9140625 171.73828125C270.9375 157.5 256.58203125 148.30078125 241.171875 148.828125L155.2734375 151.7578125L235.72265625 181.9921875C251.07421875 187.734375 261.38671875 202.6171875 261.4453125 219.0234375V222.421875C278.4375 213.45703125 285.8203125 193.0078125 278.3203125 175.078125zM223.2421875 259.27734375L224.58984375 255.9375C230.44921875 241.69921875 226.81640625 225 215.56640625 214.453125L152.9296875 155.68359375L188.3203125 234.0234375C195.05859375 248.96484375 191.8359375 266.77734375 180.234375 278.4375L177.83203125 280.83984375C196.171875 286.40625 215.91796875 277.20703125 223.2421875 259.27734375zM124.74609375 279.66796875L128.0859375 278.26171875C142.32421875 272.34375 151.640625 257.98828125 151.171875 242.578125L148.4765625 156.6796875L118.0078125 237.01171875C112.20703125 252.421875 97.265625 262.734375 80.91796875 262.734375H77.51953125C86.484375 279.66796875 106.875 287.109375 124.74609375 279.66796875zM41.71875 225.64453125L45.05859375 226.9921875C59.35546875 232.734375 75.99609375 228.984375 86.42578125 217.6171875L144.609375 154.3359375L66.5625 190.4296875C51.6796875 197.34375 33.80859375 194.23828125 22.08984375 182.75390625L19.62890625 180.3515625C14.296875 198.8671875 23.671875 218.4375 41.71875 225.64453125zM20.390625 127.32421875L21.796875 130.6640625C27.83203125 144.84375 42.3046875 153.984375 57.65625 153.33984375L143.49609375 149.8828125L62.87109375 120.17578125C47.4609375 114.4921875 37.03125 99.66796875 36.9140625 83.26171875L36.85546875 79.86328125C20.0390625 89.00390625 12.7734375 109.453125 20.390625 127.32421875zM74.94140625 42.83203125L73.59375 46.171875C67.79296875 60.46875 71.54296875 77.109375 82.8515625 87.59765625L141.85546875 142.20703125L128.73046875 108.515625L110.0390625 67.8515625C103.18359375 52.96875 106.34765625 35.09765625 117.83203125 23.4374999999999L120.234375 21.0351562499999C101.8359375 15.5273437499999 82.265625 24.8437499999999 74.94140625 42.8320312499999zM173.3203125 21.796875L169.98046875 23.203125C155.7421875 29.1796875 146.6015625 43.59375 147.1875 59.00390625L150.41015625 144.90234375L180.3515625 64.3359375C186.0937500000001 48.984375 200.9179687500001 38.5546875 217.3242187500001 38.4960937499999H220.7226562500001C211.6406250000001 21.5625 191.1914062500001 14.23828125 173.3203125 21.7968749999999zM257.6953125 76.640625L254.35546875 75.29296875C240.0585937500001 69.4921875 223.41796875 73.125 212.9296875 84.43359375L154.3359375 147.3046875L232.5585937500001 111.6796875C237.7734375 109.27734375 243.3984375000001 108.1640625 248.90625 108.1640625C259.21875 108.1640625 269.35546875 112.1484375 276.9140625 119.6484375L279.31640625 122.05078125C284.8828125 103.65234375 275.6835937500001 83.96484375 257.6953125000001 76.640625z" />
    <glyph glyph-name="048-asterisk"
      unicode="&#xF129;"
      horiz-adv-x="300" d="M290.625 151.171875H157.3828125L284.12109375 192.36328125L283.359375 194.58984375L156.6796875 153.3984375L264.4335937500001 231.6796875L263.0859375000001 233.61328125L155.2734375 155.2734375L233.6132812500001 263.0859375L231.6796875000001 264.43359375L153.3984375 156.6796875L194.5898437500001 283.359375L192.36328125 284.12109375L151.171875 157.3828125V290.625H148.828125V157.3828125L107.63671875 284.12109375L105.41015625 283.359375L146.6015625 156.6796875L68.3203125 264.43359375L66.38671875 263.0859375L144.7265625 155.2734375L36.9140625 233.61328125L35.56640625 231.6796875L143.3203125000001 153.3984375L16.6406250000001 194.58984375L15.8789062500001 192.36328125L142.6171875000001 151.171875H9.3750000000001V148.828125H142.6171875000001L15.87890625 107.63671875L16.640625 105.41015625L143.3203125000001 146.6015625L35.56640625 68.3203125L36.9140625 66.38671875L144.7265625 144.7265625L66.38671875 36.9140625L68.3203125 35.56640625L146.6015625 143.3203125L105.41015625 16.640625L107.63671875 15.87890625L148.828125 142.6171875V9.375H151.171875V142.6171875L192.36328125 15.87890625L194.5898437500001 16.640625L153.3984375 143.3203125L231.6796875000001 35.5664062499999L233.6132812500001 36.9140624999999L155.2734375000001 144.7265625L263.0859375000001 66.38671875L264.4335937500001 68.3203125L156.6796875000001 146.6015625L283.3593750000001 105.4101562499999L284.1210937500001 107.63671875L157.3828125000001 148.828125H290.6250000000001z" />
    <glyph glyph-name="049-star-3"
      unicode="&#xF12A;"
      horiz-adv-x="300" d="M263.0859375 150C284.94140625 166.58203125 294.84375 182.40234375 290.91796875 194.70703125C286.81640625 207.59765625 268.18359375 214.921875 238.4765625 215.2734375C213.10546875 215.625 182.109375 210.87890625 149.94140625 201.9140625C117.7734375 210.87890625 86.77734375 215.625 61.40625 215.2734375C31.69921875 214.921875 13.06640625 207.59765625 8.96484375 194.70703125C5.0390625 182.40234375 14.94140625 166.58203125 36.796875 150C14.94140625 133.41796875 5.0390625 117.59765625 8.96484375 105.29296875C13.06640625 92.40234375 31.69921875 85.078125 61.40625 84.7265625H63.8671875C88.76953125 84.7265625 118.76953125 89.4140625 149.8828125 98.0859375C180.99609375 89.4140625 210.99609375 84.7265625 235.8984375 84.7265625H238.359375C268.06640625 85.078125 286.69921875 92.40234375 290.80078125 105.29296875C294.84375 117.59765625 285 133.41796875 263.0859375 150zM236.015625 212.9296875H238.4765625C266.71875 212.578125 285 205.6640625 288.69140625 194.00390625C292.265625 182.75390625 282.24609375 167.34375 261.15234375 151.46484375C260.7421875 151.7578125 260.33203125 152.05078125 259.921875 152.34375C236.19140625 169.51171875 202.5 185.56640625 165 197.40234375C161.42578125 198.515625 157.8515625 199.62890625 154.3359375 200.625C183.92578125 208.65234375 212.34375 212.9296875 236.015625 212.9296875zM11.25 194.00390625C14.94140625 205.6640625 33.28125 212.578125 61.46484375 212.9296875H63.92578125C87.59765625 212.9296875 116.015625 208.65234375 145.60546875 200.68359375C142.03125 199.62890625 138.515625 198.57421875 134.94140625 197.4609375C97.5 185.56640625 63.75 169.5703125 40.01953125 152.40234375C39.609375 152.109375 39.19921875 151.81640625 38.7890625 151.5234375C17.75390625 167.34375 7.734375 182.75390625 11.25 194.00390625zM61.5234375 87.0703125C33.28125 87.421875 15 94.3359375 11.30859375 105.99609375C7.734375 117.24609375 17.75390625 132.65625 38.84765625 148.53515625L40.078125 147.65625C63.80859375 130.48828125 97.5 114.43359375 135 102.59765625C138.57421875 101.484375 142.1484375 100.37109375 145.6640625 99.375C115.01953125 91.0546875 85.6640625 86.77734375 61.5234375 87.0703125zM135.64453125 104.765625C98.4375 116.6015625 64.98046875 132.48046875 41.42578125 149.53125C41.19140625 149.70703125 41.015625 149.82421875 40.83984375 150C41.015625 150.17578125 41.25 150.29296875 41.42578125 150.46875C64.98046875 167.51953125 98.4375 183.3984375 135.703125 195.2343750000001C140.5078125 196.7578125000001 145.25390625 198.1640625000001 150.05859375 199.5117187500001C154.8046875 198.1640625000001 159.609375 196.7578125000001 164.4140625 195.2343750000001C201.6796875 183.3984375000001 235.13671875 167.5195312500001 258.69140625 150.46875C258.80859375 150.29296875 258.984375 150.17578125 259.21875 150C259.04296875 149.82421875 258.80859375 149.70703125 258.6328125 149.53125C235.078125 132.48046875 201.62109375 116.6015625 164.35546875 104.765625C159.55078125 103.2421875 154.8046875 101.8359375 150 100.48828125C145.25390625 101.8359375 140.44921875 103.2421875 135.64453125 104.765625zM288.75 105.99609375C285.05859375 94.3359375 266.71875 87.421875 238.53515625 87.0703125C214.3359375 86.77734375 185.0390625 91.0546875 154.39453125 99.31640625C157.96875 100.37109375 161.484375 101.42578125 165.05859375 102.5390625C202.5 114.43359375 236.25 130.4296875 259.98046875 147.59765625C260.390625 147.890625 260.80078125 148.18359375 261.2109375 148.4765625C282.24609375 132.65625 292.265625 117.24609375 288.75 105.99609375zM150 179.6484375C150 163.2421875 136.69921875 150 120.3515625 150C136.7578125 150 150 136.69921875 150 120.3515625C150 136.7578125 163.30078125 150 179.6484375 150C163.30078125 150 150 163.30078125 150 179.6484375z" />
    <glyph glyph-name="050-circle"
      unicode="&#xF12B;"
      horiz-adv-x="300" d="M221.484375 221.484375C220.83984375 260.390625 189.0234375 291.796875 150 291.796875S79.16015625 260.33203125 78.515625 221.484375C60.64453125 221.19140625 43.828125 214.39453125 30.703125 202.08984375C16.81640625 189.0234375 8.7890625 171.26953125 8.203125 152.2265625S14.47265625 114.9609375 27.59765625 101.07421875C40.6640625 87.1875 58.41796875 79.16015625 77.4609375 78.57421875H78.45703125C78.75 60.703125 85.546875 43.828125 97.8515625 30.76171875C110.91796875 16.875 128.671875 8.84765625 147.71484375 8.26171875C148.4765625 8.26171875 149.23828125 8.203125 149.94140625 8.203125C168.22265625 8.203125 185.5078125 15.05859375 198.8671875 27.59765625C212.75390625 40.6640625 220.78125 58.41796875 221.3671875 77.4609375C221.3671875 77.8125 221.3671875 78.1640625 221.3671875 78.45703125C260.2734375 79.1015625 291.6796875 110.91796875 291.6796875 149.94140625C291.796875 189.0234375 260.33203125 220.83984375 221.484375 221.484375zM150 289.453125C187.734375 289.453125 218.49609375 259.04296875 219.140625 221.484375C184.6875 220.95703125 156.09375 195.87890625 150 163.06640625C147.5390625 176.42578125 141.328125 188.84765625 131.77734375 198.984375C118.7109375 212.87109375 100.95703125 220.8984375 81.9140625 221.484375C81.5625 221.484375 81.2109375 221.484375 80.91796875 221.484375C81.50390625 259.04296875 112.265625 289.453125 150 289.453125zM78.515625 80.859375C78.22265625 80.859375 77.87109375 80.859375 77.578125 80.859375C59.12109375 81.4453125 41.953125 89.12109375 29.35546875 102.59765625C16.69921875 116.07421875 10.01953125 133.65234375 10.60546875 152.109375S18.8671875 187.734375 32.34375 200.33203125C45 212.2265625 61.2890625 218.84765625 78.515625 219.08203125C79.04296875 184.62890625 104.12109375 156.03515625 136.93359375 149.94140625C123.57421875 147.48046875 111.15234375 141.26953125 100.95703125 131.71875C87.0703125 118.65234375 79.04296875 100.8984375 78.45703125 81.85546875C78.515625 81.5625 78.515625 81.2109375 78.515625 80.859375zM219.140625 77.578125C218.5546875 59.12109375 210.87890625 41.953125 197.40234375 29.35546875C183.92578125 16.6992187499999 166.34765625 10.078125 147.890625 10.60546875C129.43359375 11.19140625 112.265625 18.8671875 99.66796875 32.34375C87.7734375 45 81.15234375 61.2890625 80.91796875 78.515625C98.7890625 78.80859375 115.6640625 85.60546875 128.73046875 97.91015625C139.98046875 108.45703125 147.3046875 122.05078125 150.05859375 136.9921875C156.15234375 104.12109375 184.74609375 79.1015625 219.19921875 78.515625C219.140625 78.22265625 219.140625 77.87109375 219.140625 77.578125zM221.484375 80.859375C221.19140625 98.73046875 214.39453125 115.60546875 202.08984375 128.671875C191.54296875 139.921875 177.94921875 147.24609375 163.0078125 150C195.87890625 156.09375 220.8984375 184.6875 221.484375 219.140625C259.1015625 218.49609375 289.453125 187.734375 289.453125 150S259.04296875 81.50390625 221.484375 80.859375z" />
    <glyph glyph-name="051-zigzag-lines-in-side-view-position"
      unicode="&#xF12C;"
      horiz-adv-x="299.99925530779376" d="M72.3528053796565 0C72.8867496915733 0 73.4206940034901 0.2047903567324 73.8302747169549 0.6121369935782L111.6018081126769 38.3792022360625C112.4157566941624 39.1864485876912 112.4157566941624 40.5224264057927 111.6018081126769 41.3296727574215L76.8090435421533 76.1202032513262L113.1254483667659 112.4380974603514C113.9341841028073 113.2453438119802 113.9341841028073 114.5731300158123 113.1254483667659 115.3878232895041L78.4697071622014 150.0331388031804L114.9611146552944 186.5245462962734C115.7743185445736 187.3399842621714 115.7743185445736 188.6625576205595 114.9611146552944 189.4750168176324L80.1728182380086 224.2670366959497L116.4892230626212 260.582696828356C117.301682259694 261.3959007176351 117.301682259694 262.7207081526421 116.4892230626212 263.533167349715L80.6322933292954 299.3886076986281C79.8190894400163 300.2040456645261 78.4942820050093 300.2040456645261 77.6825675001427 299.3886076986281C76.8693636108636 298.5768931937615 76.8693636108636 297.2535751431671 77.6825675001427 296.4388818694754L112.0627725883763 262.0601661656543L75.7672191455401 225.7668467994371C74.9555046406736 224.9521535257453 74.9555046406736 223.6295801673572 75.7672191455401 222.8171209702844C75.8267945220441 222.7575455937804 75.8975402816426 222.7374389042103 75.9586050425591 222.6905232952134C76.0300954943639 222.5907345395693 76.072542950123 222.478286016418 76.1604166304663 222.391157028281L110.5398770264936 188.0072284790159L74.2458129680701 151.7139091127986C73.7275071924855 151.1963480294204 73.577079366813 150.4829328957854 73.7133580405658 149.8186674477661C73.7014429652651 149.269084599517 73.8995310921407 148.7150335980301 74.3150693432559 148.2987506547087L108.6952744314896 113.9066304911743L72.3997209886534 77.6229921236389C71.5917299448183 76.8068094655345 71.5917299448183 75.4790232617023 72.3997209886534 74.6717769100735C72.4592963651573 74.6069886881255 72.5263186637243 74.5868819985554 72.5888728090535 74.5496473882404C72.6588738764456 74.4520927092152 72.6968531789669 74.3381548016513 72.7921737813733 74.2480470446891L107.1716341774006 39.8723101096933L70.8820382722148 3.5849482811263C70.0688343829356 2.7695103152283 70.0688343829356 1.4372559581583 70.8820382722148 0.6344777597674C71.2789592181725 0.1980881268757 71.8188610677397 0 72.3528053796565 0zM128.6694087888574 0C129.2033531007743 0 129.7365527204848 0.2047903567324 130.1453887417432 0.6121369935782L167.9146880608464 38.3792022360625C168.7211897202688 39.1864485876912 168.7211897202688 40.5224264057927 167.9146880608464 41.3296727574215L133.1286257201795 76.1202032513262L169.4480093136172 112.4380974603514C170.2507875120082 113.2453438119802 170.2507875120082 114.5731300158123 169.4480093136172 115.3878232895041L134.7892893402275 150.0331388031803L171.284420294352 186.5245462962733C172.094645414806 187.3399842621714 172.094645414806 188.6625576205595 171.284420294352 189.4750168176323L136.4961238770662 224.2625685427118L172.8140180860914 260.5789733673244C173.6279666675769 261.3914325643973 173.6279666675769 262.7162399994043 172.8140180860914 263.5286991964771L136.9548542761468 299.3804160843588C136.1431397712802 300.1951093580505 134.8138641830354 300.1951093580505 134.005128446994 299.3804160843588C133.1926692499212 298.5679568872859 133.1926692499212 297.2453835288978 134.005128446994 296.430690255206L168.383844150815 262.051974551385L132.0942482456293 225.7579104929614C131.2810443563501 224.9432172192697 131.2810443563501 223.6206438608816 132.0942482456293 222.8081846638087C132.1493554688954 222.7530774405426 132.2141436908435 222.7329707509725 132.277442528379 222.6860551419756C132.3489329801838 222.5862663863314 132.3861675904987 222.4700944021487 132.4814881929051 222.3822207218054L166.8646720499639 187.9975474803339L130.5720973759529 151.7042281141166C130.0590044458125 151.1903904917699 129.9078319279337 150.4806988191664 130.0411318328613 149.8171780633535C130.0277273731479 149.2675952151043 130.2206026545795 148.7046079071419 130.6413537511388 148.2831121183763L165.0342186068795 113.8947154158734L128.7185584744732 77.6125664327506C127.9105674306382 76.8053200811218 127.9105674306382 75.4693422630203 128.7185584744732 74.6620959113916C128.7781338509772 74.6054993037128 128.8451561495441 74.5764563076671 128.9032421416355 74.5481580038277C128.9784560544718 74.4506033248025 129.0164353569931 74.3284738029693 129.1117559593994 74.2465576602764L163.4897269710141 39.8611397265987L127.1978969892094 3.5745225902381C126.3824590233114 2.7598293165464 126.3824590233114 1.4357665737456 127.1978969892094 0.6247967610854C127.5948179351671 0.1980881268757 128.1287622470839 0 128.6694087888574 0zM184.9882462746773 0C185.5311268930697 0 186.061347743955 0.2047903567324 186.4649709197694 0.6121369935782L224.2402277765228 38.3792022360625C225.0541763580083 39.1864485876912 225.0541763580083 40.5224264057927 224.2402277765228 41.3296727574215L189.4482078982056 76.1202032513262L225.7631233384056 112.4380974603514C226.5778166120973 113.2453438119802 226.5778166120973 114.5731300158123 225.7631233384056 115.3878232895041L191.1111055948726 150.0331388031804L227.6062365489971 186.5245462962734C228.4030572097377 187.3399842621714 228.4030572097377 188.6625576205595 227.6062365489971 189.4750168176324L192.8052803642042 224.2670366959497L229.1231745732294 260.582696828356C229.9326550014771 261.3959007176351 229.9326550014771 262.7207081526421 229.1231745732294 263.533167349715L193.2602873022532 299.3886076986281C192.4455940285614 300.2040456645261 191.1133396714915 300.2040456645261 190.3105614731005 299.3886076986281C189.496612891615 298.5768931937615 189.496612891615 297.2535751431671 190.3105614731005 296.4388818694753L224.6818302548585 262.0601661656543L188.3944684262916 225.766846799437C187.5797751525999 224.9521535257453 187.5797751525999 223.6295801673572 188.3944684262916 222.8171209702843C188.4532991105893 222.7575455937803 188.5128744870933 222.7374389042103 188.5903224765484 222.6905232952134C188.6714939270351 222.5907345395692 188.6938346932241 222.478286016418 188.7876659112178 222.3911570282809L223.1723391526892 188.0072284790158L186.8715728644089 151.7139091127986C186.3577352420622 151.1963480294203 186.2192224916905 150.4829328957853 186.3428413979362 149.8186674477661C186.3331603992543 149.269084599517 186.5282697573048 148.7150335980301 186.9519996226893 148.2987506547086L221.3366728641607 113.9066304911742L185.0388853447056 77.6229921236388C184.2323836852831 76.8068094655344 184.2323836852831 75.4790232617023 185.0388853447056 74.6717769100735C185.0947372601781 74.6069886881254 185.1610148665387 74.5868819985553 185.2243137040742 74.5496473882404C185.3002723091167 74.4520927092151 185.3241024597183 74.3381548016513 185.4283593686003 74.248047044689L219.8130326100717 39.8723101096932L183.5234367048859 3.5849482811263C182.7065093545753 2.7695103152282 182.7065093545753 1.4372559581582 183.5234367048859 0.6344777597673C183.9203576508436 0.1980881268757 184.4513231939352 0 184.9882462746773 0z" />
    <glyph glyph-name="052-sparkler"
      unicode="&#xF12D;"
      horiz-adv-x="300" d="M295.3125 150S282.9375 147.65625 259.734375 145.3125S202.546875 140.625 159.375 140.625C159.375 54.28125 150 4.6875 150 4.6875S147.65625 17.0625 145.3125 40.265625S140.625 97.453125 140.625 140.625C54.28125 140.625 4.6875 150 4.6875 150S17.0625 152.34375 40.265625 154.6875S97.453125 159.375 140.625 159.375C140.625 245.71875 150 295.3125 150 295.3125S159.375 245.71875 159.375 159.375C245.71875 159.375 295.3125 150 295.3125 150zM159.375 168.75C187.5 206.25 215.625 215.625 215.625 215.625A202.846875 202.846875 0 0 0 168.75 159.375M131.25 159.375C93.75 187.5 84.375 215.625 84.375 215.625A202.846875 202.846875 0 0 0 140.625 168.75M140.625 131.25C112.5 93.75 84.375 84.375 84.375 84.375A202.846875 202.846875 0 0 0 131.25 140.625M168.75 140.625C206.25 112.5 215.625 84.375 215.625 84.375A202.846875 202.846875 0 0 0 159.375 131.25M126.5625 150A23.4375 23.4375 0 0 1 173.4375 150A23.4375 23.4375 0 0 1 126.5625 150" />
    <glyph glyph-name="053-right-arrow-2"
      unicode="&#xF12E;"
      horiz-adv-x="300" d="M243.421875 145.3125L4.6875 145.5046875A4.6875 4.6875 0 0 0 4.6875 154.8796875L243.4265625 154.6875A4.6875 4.6875 0 0 0 243.4265625 145.3125zM300 149.94375C273.3703125 140.1 240.3234375 123.2625 219.84375 105.4125L235.996875 150L219.9046875 194.5921875C240.365625 176.71875 273.384375 159.84375 300 149.94375z" />
    <glyph glyph-name="054-arrow-up"
      unicode="&#xF12F;"
      horiz-adv-x="300" d="M62.499625 100C62.499625 93.09625 68.096 87.5 74.999625 87.5C81.903125 87.5 87.499625 93.09625 87.499625 100L87.499875 194.822L216.16125 66.16125C221.0425 61.28 228.9575 61.28 233.83875 66.16125S238.72 78.9575 233.83875 83.83875L105.17725 212.5H200C206.90375 212.5 212.5 218.0965 212.5 225S206.90375 237.5 200 237.5H75C68.096375 237.5 62.5 231.903625 62.5 225z" />
    <glyph glyph-name="055-top-right"
      unicode="&#xF130;"
      horiz-adv-x="300" d="M280.6640625 300H53.96484375C43.30078125 300 34.62890625 291.328125 34.62890625 280.6640625S43.30078125 261.328125 53.96484375 261.328125H233.9062500000001L5.68359375 33.046875C-1.875 25.48828125 -1.875 13.2421875 5.68359375 5.68359375S25.48828125 -1.875 33.046875 5.68359375L261.26953125 233.96484375V54.0234375C261.26953125 43.359375 269.94140625 34.6875 280.60546875 34.6875S299.94140625 43.359375 299.94140625 54.0234375V280.6640625C300 291.328125 291.328125 300 280.6640625000001 300z" />
    <glyph glyph-name="056-left-up"
      unicode="&#xF131;"
      horiz-adv-x="300" d="M60.13125 253.125H262.5C267.675 253.125 271.875 257.325 271.875 262.5S267.675 271.875 262.5 271.875H37.5C32.325 271.875 28.125 267.675 28.125 262.5V37.5C28.125 32.325 32.325 28.125 37.5 28.125S46.875 32.325 46.875 37.5V239.8640625L255.871875 30.871875C257.7046875 29.0390625 260.1 28.125 262.5 28.125S267.3 29.0390625 269.128125 30.871875C272.7890625 34.5328125 272.7890625 40.4671875 269.128125 44.128125z" />
    <glyph glyph-name="057-down-right-arrow"
      unicode="&#xF132;"
      horiz-adv-x="300" d="M262.5 271.875C257.325 271.875 253.125 267.675 253.125 262.5V60.13125L44.128125 269.128125C40.471875 272.7890625 34.528125 272.7890625 30.871875 269.128125C27.2109375 265.4671875 27.2109375 259.5328125 30.871875 255.871875L239.86875 46.875H37.5C32.325 46.875 28.125 42.675 28.125 37.5S32.325 28.125 37.5 28.125H262.5C267.675 28.125 271.875 32.325 271.875 37.5V262.5C271.875 267.675 267.675 271.875 262.5 271.875z" />
    <glyph glyph-name="058-left-down-arrow"
      unicode="&#xF133;"
      horiz-adv-x="300" d="M262.5 46.875H60.13125L269.128125 255.871875C272.7890625 259.5328125 272.7890625 265.4671875 269.128125 269.128125C265.471875 272.7890625 259.528125 272.7890625 255.871875 269.128125L46.875 60.13125V262.5C46.875 267.675 42.675 271.875 37.5 271.875S28.125 267.675 28.125 262.5V37.5C28.125 32.325 32.325 28.125 37.5 28.125H262.5C267.675 28.125 271.875 32.325 271.875 37.5S267.675 46.875 262.5 46.875z" />
    <glyph glyph-name="059-right-arrow-3"
      unicode="&#xF134;"
      horiz-adv-x="300" d="M163.76953125 5.68359375L294.31640625 136.23046875C301.93359375 143.84765625 301.93359375 156.15234375 294.31640625 163.7109375L163.76953125 294.31640625C156.15234375 301.93359375 143.84765625 301.875 136.23046875 294.31640625S128.671875 274.39453125 136.23046875 266.77734375L233.5546875 169.453125H19.453125C8.73046875 169.453125 0 160.72265625 0 150S8.73046875 130.546875 19.453125 130.546875H233.6132812500001L136.23046875 33.22265625C128.7890625 25.4882812500001 128.96484375 13.1835937500001 136.69921875 5.7421875000001C144.2578125000001 -1.5820312499999 156.2109375000001 -1.5820312499999 163.76953125 5.68359375z" />
    <glyph glyph-name="060-down-right-arrow-1"
      unicode="&#xF135;"
      horiz-adv-x="300" d="M300 19.3359375V246.03515625C300 256.69921875 291.328125 265.37109375 280.6640625 265.37109375S261.328125 256.69921875 261.328125 246.03515625V66.09375L33.046875 294.31640625C25.48828125 301.875 13.2421875 301.875 5.68359375 294.31640625S-1.875 274.51171875 5.68359375 266.953125L233.96484375 38.73046875H53.96484375C43.30078125 38.73046875 34.62890625 30.05859375 34.62890625 19.39453125S43.30078125 0.05859375 53.96484375 0.05859375H280.6640625C291.328125 0 300 8.671875 300 19.3359374999999z" />
    </font>
</defs>
</svg>
